новый адрес
Ссылка на приватное зеркало всего за 1$. Внимание количество ограничено!!!

iTunes

1+1

iTunes

мы

WEB-DL

1

iTunes

Чернобыль

iTunes

Ральф против интернета

Лицензия

ПШазам

Лицензия

Оно 2

Лицензия

30
pack

Вам бонус

ВАЖНО

!!Акция!!

Alien_RageХит недели

RePack

Resident Evil 21

ИГРА 18+

pack

RePack

jed

!!Акция!!

Alien_Rage

RePack

fifa19

RePack

Assassins Creed: Odyssey

RePack

NEED FOR SPEED™ PAYBACK

3 сезон

9 сезон

Бесстыжие 9 сезон

Все сериалы

все сериалы на PB.wtf

RePack

FAR CRY 5
Ребята, катастрофически не хватает 1900р. для оплаты серверов за Октябрь (всвязи с блокировками трафик упал в 3 раза), 1-2р., выручайте.
  

Трудная мишень 2 / Hard Target 2 (Роэль Рейн) [2016 г., боевик, триллер, HDRip, Дубляж, Лицензия] pb.wtf

Трудная мишень 2 через торрент pb.wtf

Размер: 1.37 GB | Добавлен: 3 года 3 мес. назад | Торрент скачан:1567 раз
Скачать  

26-08-2016 06:27 Трудная мишень 2 Скачать торрент  

Трудная мишень 2 / Hard Target 2 Год выпуска: 2016
Страна: США
Жанр: боевик, триллер
Продолжительность: 01:43:33
Перевод: Дубляж ,Лицензия
Тип релиза: Лицензия
Субтитры: Отсутствуют

Режиссер: Роэль Рейн
Продюссер: Крис Ловенштейн, Оливер Экерманн, Шон Дэниелс
Сценарий: Мэтт Харви, Доминик Морган, Джордж Хуанг

Премьера в мире: 6 сентября 2016

лицам до 17 лет обязательно присутствие взрослого
http://www.imdb.com/title/tt5241578/



В ролях: Скотт Эдкинс, Роберт Неппер, Рона Митра, Темуэра Моррисон, Адам Саундерс, Джэйми Тимони, Питер Харди, Шон Кинэн

Описание: Продолжение культового экшн-триллера 1993 года о подпольных игрищах, где проплаченные «охотники» травят, как дичь, похищенных людей. Новой мишенью становится опальный мастер боевых искусств, который соблазнился деньгами, даже не подозревая, на что подписывается. Но и его преследователи еще не знают, с кем связались.

Качество: HDRip
Формат: AVI
Видео кодек: XviD
Аудио кодек: AC3
Видео: XviD 1434 Kbit/s,(16:9) 720x400,23.976 fps
Аудио#1: AC3, 6 ch, 448 kbps,48.0 KHz,16 bits
скриншот  скриншот  скриншот  скриншот  скриншот  

Код:

General
Complete name                            : C:\Users\ghdf\Desktop\Hard.Target.2.2016.D.HDRip.14OOMB.avi
Format                                   : AVI
Format/Info                              : Audio Video Interleave
File size                                : 1.37 GiB
Duration                                 : 1h 43mn
Overall bit rate                         : 1 892 Kbps
Writing application                      : VirtualDubMod 1.5.10.2 (build 2540/release)
Writing library                          : VirtualDubMod build 2540/release

Video
ID                                       : 0
Format                                   : MPEG-4 Visual
Format profile                           : Advanced Simple@L5
Format settings, BVOP                    : 2
Format settings, QPel                    : No
Format settings, GMC                     : No warppoints
Format settings, Matrix                  : Custom
Codec ID                                 : XVID
Codec ID/Hint                            : XviD
Duration                                 : 1h 43mn
Bit rate                                 : 1 434 Kbps
Width                                    : 720 pixels
Height                                   : 400 pixels
Display aspect ratio                     : 16:9
Frame rate                               : 23.976 fps
Color space                              : YUV
Chroma subsampling                       : 4:2:0
Bit depth                                : 8 bits
Scan type                                : Progressive
Compression mode                         : Lossy
Bits/(Pixel*Frame)                       : 0.208
Stream size                              : 1.04 GiB (76%)
Writing library                          : XviD 1.2.1 (UTC 2008-12-04)

Audio
ID                                       : 1
Format                                   : AC-3
Format/Info                              : Audio Coding 3
Mode extension                           : CM (complete main)
Format settings, Endianness              : Big
Codec ID                                 : 2000
Duration                                 : 1h 43mn
Bit rate mode                            : Constant
Bit rate                                 : 448 Kbps
Channel count                            : 6 channels
Channel positions                        : Front: L C R, Side: L R, LFE
Sampling rate                            : 48.0 KHz
Bit depth                                : 16 bits
Compression mode                         : Lossy
Stream size                              : 332 MiB (24%)
Alignment                                : Split accross interleaves
Interleave, duration                     : 42 ms (1.00 video frame)
Interleave, preload duration             : 500 ms


pb.wtf



Скачать Трудная мишень 2 через торрент http://s018.radikal.ru/i511/1608/0e/fc3336abbc21.jpg Скачать фильм Трудная мишень 2 через торрент бесплантно в хорошем качестве Описание: Продолжение культового экшн-триллера 1993 года о подпольных игрищах, где проплаченные «охотники» травят, как дичь, похищенных ... 9.6 10 36
Info! Золотая раздача, скачанное не засчитывается.
Торрент: Зарегистрирован [2016-08-26 06:27] · скачан: 1 567 раз
Статус: √ проверено
Размер: 1.37 GB
Как cкачать? Как скачать Трудная мишень 2 через торрент | qTorrent

% Раздел Тема Автор DL S | L
Фильмы (Blu-ray, BD-Remux, HDDVD) [ 40.56 GB ] Трудная мишень 2 / Hard Target 2 [2016 Blu-Ray CEE] Russian Mafia Скачать
1 | 1
Фильмы 2016 [DVDrip, WEB-DLRip, HDrip] (DUB, MVO) [ 2.05 GB ] Трудная мишень 2 / Hard Target 2 [2016 HDRip "BD CEE"] coc900 Скачать
1 | 0
Фильмы [HD 720p, 1080p] (Хороший звук DUB, MVO) [ 6.84 GB ] Трудная мишень 2 / Hard Target 2 [2016 BDRip 720p] [] smaster Скачать
1 | 0
Фильмы 2016 [DVDrip, WEB-DLRip, HDrip] (DUB, MVO) [ 1.46 GB ] Трудная мишень 2 / Hard Target 2 [2016 BDRip - [] Twi7ter Скачать
2 | 0
Фильмы [HD 720p, 1080p] (Хороший звук DUB, MVO) [ 11.16 GB ] Трудная мишень 2 / Hard Target 2 [2016 BDRip 1080p] [] smaster Скачать
1 | 0
Фильмы (Blu-ray, BD-Remux, HDDVD) [ 16.21 GB ] Трудная мишень 2 / Hard Target 2 [2016 BDRemux 1080p] от ExKinoRay / Russian Mafia Скачать
1 | 0


Последний раз редактировалось: sanekbest1 (2016-08-26 07:24), всего редактировалось 1 раз

28-11-2019 20:33  

Отключить всю рекламу на сайте

26-08-2016 06:43 Трудная мишень 2 Скачать торрент  

Жаль Ван Дамма нет, первая часть лихая была)pb.wtf



26-08-2016 06:48 Трудная мишень 2 Скачать торрент  

bober100 писал(а):

Жаль Ван Дамма нет, первая часть лихая была)

смотрел сам лично этот фильм,лично мое мнение по оценки 9 из 10 смотрится хорошо,да и Эдкинс нормальный актер....драйв обеспечен в фильме ,ну и махачка присутствует!рекомендуюpb.wtf



26-08-2016 07:18 Трудная мишень 2 Скачать торрент  

bober100 писал(а):

Жаль Ван Дамма нет, первая часть лихая была)

он уже старый,сиськи под глазами,пусть отдыхает,а Скотт Эдкинс молодец,всем наваляетpb.wtf



26-08-2016 12:44 Трудная мишень 2 Скачать торрент  

Адовый трэш pb.wtf



26-08-2016 17:46 Трудная мишень 2 Скачать торрент  

dimdim80 писал(а):

bober100 писал(а):

Жаль Ван Дамма нет, первая часть лихая была)

он уже старый,сиськи под глазами,пусть отдыхает,а Скотт Эдкинс молодец,всем наваляет

Но перееб.ть сможетpb.wtf
!Ворон писал(а):

Вуал.мат УСТНОЕ!



27-08-2016 11:18 Трудная мишень 2 Скачать торрент  

уж лучше "Охота на пиранью" пересмотреть, конец просто перемотал.pb.wtf



27-08-2016 15:16 Трудная мишень 2 Скачать торрент  

Конечно есть косяки но фильм в целом очень смотрибельный pb.wtf



05-09-2016 06:22 Трудная мишень 2 Скачать торрент  

На удивление хороший боевичок получился. Напомнило боевики 90-х) На разок советую посмотреть.pb.wtf



    Дорогой пользователь! Огромная просьба, поблагодарите релизера, оцените раздачу и оставьте свои комментарий, если Вы скачали Трудная мишень 2 через торрент бесплатно! Внесите свою лепту в развитие PiratBit!
    Комментировать посты могут только пользователи прошедшие не сложную регистрацию
    Показать сообщения:    

    Трудная мишень 2 через торрент
    Скачать бесплатно Трудная мишень 2
    Трудная мишень 2 скачать торрент
    Трудная мишень 2 смотреть онлайн
    Cкачать фильм Трудная мишень 2 бесплатно
    Трудная мишень 2 скачать торрент в хорошем качестве
    Трудная мишень 2 смотреть онлайн бесплатно в хорошем качестве


    Вы не можете начинать темы
    Вы не можете отвечать на сообщения
    Вы не можете редактировать свои сообщения
    Вы не можете удалять свои сообщения
    Вы не можете голосовать в опросах
    Вы не можете прикреплять файлы к сообщениям
    Вы можете скачивать файлы