Достать ножи: Стеклянная луковица

MVO

Добыча

Дубляж

Уэнсдэй

1 сезон

Тор

Дубляж

13 клиническая

1 сезон

Жестокая ночь

MVO

Одни из нас

1 сезон

Deluxe

pack

Рекомендуем

30

Пиратка

ВАЖНО

ВАЖНО

Ghostwire

Пиратка

jed

RePack

nioh2

RePack

RDR2

RePack

NEED FOR SPEED™ PAYBACK

RePack

скачать торрент

Кинопоиск HD

Острые козырьки 6 сезон

6 сезон

FAR CRY 6

RePack

скачать торрент

Лицензия

скачать торрент

MVO

1

1 сезон

скачать торрент

1 сезон

скачать торрент

Лицензия

  

Трудная мишень 2 / Hard Target 2 (Роэль Рейн ) [2016, боевик, триллер, BDRip 1080p] Дубляж [Лицензия]

Трудная мишень 2 через торрент pb.wtf

Размер: 11.16 GB | Добавлен: 6 лет 5 мес. назад | Торрент скачан:220 раз
Смотреть онлайн | Скачать | Поддержите нас   

26-08-2016 07:39 Трудная мишень 2 Скачать торрент  

Трудная мишень 2 / Hard Target 2

Год выпуска: 2016
Страна: США
Жанр: боевик, триллер

Продолжительность: 01:43:33
Перевод: Дубляж [Лицензия]
Режиссер: Роэль Рейн
В ролях: Скотт Эдкинс (Wes Baylor), Роберт Неппер (Aldrich), Рона Митра (Sofia), Темуэра Моррисон (Madden), Ann Truong (Tha), Адам Саундерс (Esparto), Джэйми Тимони (Landon), Питер Харди (Jacob Zimling), Шон Кинэн (Tobias Zimling), Troy Honeysett (Jonny Sutherland), Йанин Висмитананда, Катрина Грэй (Kay)
Описание:
Продолжение культового экшн-триллера 1993 года о подпольных игрищах, где проплаченные «охотники» травят, как дичь, похищенных людей. Новой мишенью становится опальный мастер боевых искусств, который соблазнился деньгами, даже не подозревая, на что подписывается. Но и его преследователи еще не знают, с кем связались.
Рейтинг:

MPAA: R - Лицам до 17 лет обязательно присутствие взрослого
Качество: BDRip 1080p
Формат: MKV
Видео: AVC, 1920x1080 (16:9), 15000 kbps, 23,976 fps, 0,302 bpp
Аудио: русский / AC3 / 5.1 / 48 kHz / 448 kbps /
Навигация по главам: есть
Семпл
General
Unique ID Hard.Target.2.2016.BDRip.1080p.mkv
Format : Matroska
Format version : Version 4 / Version 2
File size : 11.2 GiB
Duration : 1 h 43 min
Overall bit rate : 15.4 Mb/s
Movie name : Hard.Target.2.2016.BDRip.1080p.ExKinoRay
Encoded date : UTC 2016-08-25 23:16:02
Writing application : mkvmerge v8.3.0 ('Over the Horizon') 64bit
Writing library : libebml v1.3.1 + libmatroska v1.4.2

Video
ID : 1
Format : AVC
Format/Info : Advanced Video Codec
Format profile : [email protected]
Format settings, CABAC : Yes
Format settings, ReFrames : 4 frames
Codec ID : V_MPEG4/ISO/AVC
Duration : 1 h 43 min
Bit rate : 15.0 Mb/s
Width : 1 920 pixels
Height : 1 080 pixels
Display aspect ratio : 16:9
Frame rate mode : Constant
Frame rate : 23.976 (24000/1001) FPS
Color space : YUV
Chroma subsampling : 4:2:0
Bit depth : 8 bits
Scan type : Progressive
Bits/(Pixel*Frame) : 0.302
Stream size : 10.8 GiB (97%)
Writing library : x264 core 142 r2431+42 c69a006 tMod [[email protected] X86]
Encoding settings : cabac=1 / ref=4 / deblock=1:0:0 / analyse=0x3:0x113 / me=umh / subme=10 / psy=1 / fade_compensate=0.00 / psy_rd=1.05:0.10 / mixed_ref=1 / me_range=48 / chroma_me=1 / trellis=2 / 8x8dct=1 / cqm=0 / deadzone=21,11 / fast_pskip=0 / chroma_qp_offset=-2 / threads=12 / lookahead_threads=1 / sliced_threads=0 / nr=0 / decimate=1 / interlaced=0 / bluray_compat=0 / constrained_intra=0 / fgo=0 / bframes=6 / b_pyramid=2 / b_adapt=2 / b_bias=0 / direct=3 / weightb=1 / open_gop=0 / weightp=2 / keyint=250 / keyint_min=23 / scenecut=40 / intra_refresh=0 / rc=2pass / mbtree=0 / bitrate=15000 / ratetol=2.0 / qcomp=0.70 / qpmin=0:0:0 / qpmax=69:69:69 / qpstep=4 / cplxblur=20.0 / qblur=0.5 / ip_ratio=1.40 / pb_ratio=1.30 / aq=2:1.00 / aq-sensitivity=10.00 / aq-factor=1.00:1.00:1.00 / aq2=0 / aq3=0
Language : English
Default : Yes
Forced : No

Audio
ID : 2
Format : AC-3
Format/Info : Audio Coding 3
Mode extension : CM (complete main)
Format settings, Endianness : Big
Codec ID : A_AC3
Duration : 1 h 43 min
Bit rate mode : Constant
Bit rate : 448 kb/s
Channel(s) : 6 channels
Channel positions : Front: L C R, Side: L R, LFE
Sampling rate : 48.0 kHz
Frame rate : 31.250 FPS (1536 spf)
Compression mode : Lossy
Stream size : 332 MiB (3%)
Language : Russian
Default : Yes
Forced : No

Menu
00:00:00.000 : en:Chapter 01
00:05:23.281 : en:Chapter 02
00:10:12.987 : en:Chapter 03
00:15:53.202 : en:Chapter 04
00:20:13.546 : en:Chapter 05
00:23:41.462 : en:Chapter 06
00:28:51.229 : en:Chapter 07
00:33:30.383 : en:Chapter 08
00:39:37.208 : en:Chapter 09
00:45:05.286 : en:Chapter 10
00:49:43.105 : en:Chapter 11
00:53:26.954 : en:Chapter 12
00:58:40.392 : en:Chapter 13
01:02:42.467 : en:Chapter 14
01:08:22.598 : en:Chapter 15
01:12:51.075 : en:Chapter 16
01:17:35.401 : en:Chapter 17
01:20:58.270 : en:Chapter 18
01:26:11.500 : en:Chapter 19
01:31:42.247 : en:Chapter 20
Скриншоты:



Скачать Трудная мишень 2 через торрент http://i2-imageban-ru.translate.goog/out/2016/08/26/32e70fc07e0297bce0e149459e55fdbb.jpg Скачать, смотреть онлайн Трудная мишень 2 бесплантно в хорошем качестве Описание: Продолжение культового экшн-триллера 1993 года о подпольных игрищах, где проплаченные «охотники» травят, как дичь, похищенных ... 9.5 10 13
Info! Золотая раздача, скачанное не засчитывается.
Торрент: Зарегистрирован [2016-08-26 07:39] · скачан: 220 раз
Статус: √ проверено
Размер: 11.16 GB
Как cкачать? Как скачать Трудная мишень 2 через торрент | UTorrent

% Раздел Тема Автор DL S | L
Фильмы (Blu-ray, BD-Remux, HDDVD) [ 40.56 GB ] Трудная мишень 2 / Hard Target 2 | Лицензия | Лицензия Russian Mafia Скачать
1 | 0
Фильмы 2016 [DVDrip, WEB-DLRip, HDrip] (DUB, MVO) [ 1.37 GB ] Трудная мишень 2 / Hard Target 2 | Лицензия | HDRip, Дубляж, Лицензия sanekbest1 Скачать
1 | 0
Фильмы 2016 [DVDrip, WEB-DLRip, HDrip] (DUB, MVO) [ 2.05 GB ] Трудная мишень 2 / Hard Target 2 | Дубляж "BD CEE" | HDRip, Дубляж "BD CEE" coc900 Скачать
1 | 0
Фильмы [HD 720p, 1080p] (Хороший звук DUB, MVO) [ 6.84 GB ] Трудная мишень 2 / Hard Target 2 | Лицензия | 720p smaster Скачать
1 | 0
Фильмы 2016 [DVDrip, WEB-DLRip, HDrip] (DUB, MVO) [ 1.46 GB ] Трудная мишень 2 / Hard Target 2 | Лицензия | BDRip , Дубляж - [Лицензия Twi7ter Скачать
1 | 0
Фильмы (Blu-ray, BD-Remux, HDDVD) [ 16.21 GB ] Трудная мишень 2 / Hard Target 2 | Лицензия | 1080p Russian Mafia Скачать
1 | 0

28-11-2019 20:33  


Отключить вcю реклaмy на сайте, в т.ч. и в плеере онлайн просмотра!

26-08-2016 09:06 Трудная мишень 2 Скачать торрент  

Странно…
Его в мировом прокате должны в кино показать только 6 сентября



26-08-2016 09:19 Трудная мишень 2 Скачать торрент  

Пираты правят миром)

kostak7 писал(а):

Странно…
Его в мировом прокате должны в кино показать только 6 сентября




26-08-2016 17:58 Трудная мишень 2 Скачать торрент  

посмотрел! что это за УЖАС! фильм даже не говно, а говнище! смотреть только нужно для того чтобы посмотреть как КРУТО снимались фильмы в 90х в США...



    Дорогой пользователь! Огромная просьба, поблагодарите релизера, оцените раздачу и оставьте свои комментарий, если Вы скачали Трудная мишень 2 через торрент бесплатно!!
    Комментировать посты могут только пользователи прошедшие не сложную регистрацию
    Показать сообщения:    


    Трудная мишень 2 через торрент
    Скачать бесплатно Трудная мишень 2
    Трудная мишень 2 скачать торрент
    Трудная мишень 2 смотреть онлайн
    Cкачать фильм Трудная мишень 2 бесплатно
    Трудная мишень 2 скачать торрент в хорошем качестве
    Трудная мишень 2 смотреть онлайн бесплатно в хорошем качестве
    Вы не можете начинать темы
    Вы не можете отвечать на сообщения
    Вы не можете редактировать свои сообщения
    Вы не можете удалять свои сообщения
    Вы не можете голосовать в опросах
    Вы не можете прикреплять файлы к сообщениям
    Вы можете скачивать файлы
    Трудная мишень 2 / Hard Target 2 [2016, боевик, триллер, BDRip 1080p] Дубляж [Лицензия] смотреть онлайн, скачать торрент picoco.icu