новый адрес
Ссылка на приватное зеркало всего за 1$. Внимание количество ограничено!!!

iTunes

1+1

iTunes

мы

iTunes

1

iTunes

Чернобыль

iTunes

Ральф против интернета

Лицензия

ПШазам

Лицензия

Оно 2

Лицензия

30
pack

Вам бонус

ВАЖНО

!!Акция!!

Alien_RageХит недели

RePack

Resident Evil 21

ИГРА 18+

pack

RePack

jed

!!Акция!!

Alien_Rage

RePack

fifa19

RePack

Assassins Creed: Odyssey

RePack

NEED FOR SPEED™ PAYBACK

3 сезон

9 сезон

Бесстыжие 9 сезон

Все сериалы

все сериалы на PB.wtf

RePack

FAR CRY 5
Ребята, катастрофически не хватает 1900р. для оплаты серверов за Октябрь (всвязи с блокировками трафик упал в 3 раза), 1-2р., выручайте.
  

Зелёные огни (Иосиф Шульман, Сергей Сплошнов) [1955, СССР, драма, DVDRip от AVP Studio] pb.wtf

Зелёные огни через торрент pb.wtf

Размер: 1.09 GB | Добавлен: 3 года 2 мес. назад | Торрент скачан:12 раз
Скачать  

26-08-2016 08:11 Зелёные огни Скачать торрент  

Зелёные огни
Страна: СССР
Производство: Беларусьфильм

Жанр: драма
Год выпуска: 1955
Продолжительность: 01:22:01

Перевод: Не требуется
Cубтитры: нет
Оригинальная аудиодорожка: русский

Режиссер: Иосиф Шульман, Сергей Сплошнов

В ролях:
Геннадий Малышев, Борис Терентьев, Александр Кистов, Евгений Карнаухов, Маргарита Лифанова, Валентина Ушакова, Георгий Гумилевский, Глеб Глебов, Юрий Галкин (II), Рита Гладунко, А. Зотов, Тамара Трушина...
Полный список актёров

Описание:
Действие происходит на одном из железнодорожных узлов Белоруссии. Молодой машинист грузового поезда Сергей Чобур на свой страх и риск совершает первый рейс с превышением весовых норм. В пути обнаруживается неисправность машины. Занявшись на ходу ремонтом, бригада допускает нарушение правил технической эксплуатации, и Чобура снимают с работы. При активном участии начальника политотдела Якушева опыт Чобура удается успешно повторить, и Сергея возвращают на паровоз. Этому обстоятельству более всего рады две девушки-железнодорожницы — инженер Людмила и диспетчер Оксана...

Источник: DVD R5
Качество видео: DVDRip
Формат видео: AVI

Видео: 704x528 (4:3), 25 fps, XviD ~ 1701 kbps avg, 0.183 bit/pixel
Аудио: 48 kHz, Dolby Digital AC3 2.0, 192 kbps

Раздача от:
Общее
Полное имя : Zelyonye.ogni.1955.DVDRip_[New-team]_by_AVP_Studio.avi
Формат : AVI
Формат/Информация : Audio Video Interleave
Размер файла : 1,09 Гбайт
Продолжительность : 1 ч. 22 м.
Общий поток : 1903 Кбит/сек
Программа кодирования : VirtualDubMod 1.5.10.3 | www.virtualdub-fr.org || (build 2550/release)
Библиотека кодирования : VirtualDubMod build 2550/release

Видео
Идентификатор : 0
Формат : MPEG-4 Visual
Профиль формата : Advanced Simple@L5
Параметр BVOP формата : 1
Параметр QPel формата : Нет
Параметр GMC формата : Без точки перехода
Параметр матрицы формата : Выборочная
Идентификатор кодека : XVID
Идентификатор кодека/Подсказка : XviD
Продолжительность : 1 ч. 22 м.
Битрейт : 1701 Кбит/сек
Ширина : 704 пикселя
Высота : 528 пикселей
Соотношение сторон : 4:3
Частота кадров : 25,000 кадров/сек
Цветовое пространство : YUV
Субдискретизация насыщенности : 4:2:0
Битовая глубина : 8 бит
Тип развёртки : Прогрессивная
Метод сжатия : С потерями
Бит/(Пиксели*Кадры) : 0.183
Размер потока : 998 Мбайт (89%)
Библиотека кодирования : XviD 1.2.1 (UTC 2008-12-04)

Аудио
Идентификатор : 1
Формат : AC-3
Формат/Информация : Audio Coding 3
Расширение режима : CM (complete main)
Параметр Endianness формата : Big
Идентификатор кодека : 2000
Продолжительность : 1 ч. 22 м.
Вид битрейта : Постоянный
Битрейт : 192 Кбит/сек
Каналы : 2 канала
Расположение каналов : Front: L R
Частота : 48,0 КГц
Частота кадров : 31,250 кадров/сек (1536 spf)
Метод сжатия : С потерями
Размер потока : 113 Мбайт (10%)
Выравнивание : Разделение по промежуткам
Продолжительность промежутка : 40 мс. (1,00 видеокадр)
Время предзагрузки промежутка : 500 мс
pb.wtf



Скачать Зелёные огни через торрент http://s017.radikal.ru/i414/1608/36/7a17f386bb61.png Скачать фильм Зелёные огни через торрент бесплантно в хорошем качестве Описание:Действие происходит на одном из железнодорожных узлов Белоруссии. Молодой машинист грузового поезда Сергей Чобур на свой страх и ... 10 10 1
Info! Золотая раздача, скачанное не засчитывается.
Торрент: Зарегистрирован [2016-08-26 08:11] · скачан: 12 раз
Статус: √ проверено
Размер: 1.09 GB
Как cкачать? Как скачать Зелёные огни через торрент | qTorrent

% Раздел Тема Автор DL S | L
Кино СССР [ 1.09 GB ] Зелёные огни [1955 СССР DVDRip-AVC от AVP Studio] AVP Studio Скачать
1 | 0
Кино СССР [ 745 MB ] Зелёные огни [1955 СССР DVDRip от AVP Studio] AVP Studio Скачать
1 | 0
    Дорогой пользователь! Огромная просьба, поблагодарите релизера, оцените раздачу и оставьте свои комментарий, если Вы скачали Зелёные огни через торрент бесплатно! Внесите свою лепту в развитие PiratBit!
    Комментировать посты могут только пользователи прошедшие не сложную регистрацию
    Показать сообщения:    

    Зелёные огни через торрент
    Скачать бесплатно Зелёные огни
    Зелёные огни скачать торрент
    Зелёные огни смотреть онлайн
    Cкачать фильм Зелёные огни бесплатно
    Зелёные огни скачать торрент в хорошем качестве
    Зелёные огни смотреть онлайн бесплатно в хорошем качестве


    Вы не можете начинать темы
    Вы не можете отвечать на сообщения
    Вы не можете редактировать свои сообщения
    Вы не можете удалять свои сообщения
    Вы не можете голосовать в опросах
    Вы не можете прикреплять файлы к сообщениям
    Вы можете скачивать файлы