новый адрес пиратбит piratbit
Мега распродажа FORZA HORIZON 4 ULTIMATE+ВСЕ DLC+ОНЛАЙН всего за 499р. 349 руб. (супер цена). Внимание количество ограничено!!!

iTunes

1+1

iTunes

мы

iTunes

1

iTunes

Чернобыль

iTunes

Ральф против интернета

Лицензия

ПШазам

Лицензия

Игра престолов

Лицензия

30
pack

ВАЖНО

!!Акция!!

Alien_RageХит недели

RePack

Resident Evil 21

ИГРА 18+

pack

RePack

Metro:Exodus

!!Акция!!

Alien_Rage

RePack

fifa19

RePack

Assassins Creed: Odyssey

RePack

NEED FOR SPEED™ PAYBACK

3 сезон

9 сезон

Бесстыжие 9 сезон

Все сериалы

все сериалы на PB.wtf

RePack

FAR CRY 5
Ребята, катастрофически не хватает 1900р. для оплаты серверов за Октябрь (всвязи с блокировками трафик упал в 3 раза), 1-2р., выручайте.
  

Зелёные огни (Иосиф Шульман, Сергей Сплошнов) [1955, СССР, драма, DVDRip-AVC от AVP Studio] pb.wtf

Зелёные огни через торрент pb.wtf

Размер: 1.09 GB | Добавлен: 3 года 2 мес. назад | Торрент скачан:24 раза
Скачать  

26-08-2016 08:13 Зелёные огни Скачать торрент  

Зелёные огни
Страна: СССР
Производство: Беларусьфильм

Жанр: драма
Год выпуска: 1955
Продолжительность: 01:22:01

Перевод: Не требуется
Cубтитры: нет
Оригинальная аудиодорожка: русский

Режиссер: Иосиф Шульман, Сергей Сплошнов

В ролях:
Геннадий Малышев, Борис Терентьев, Александр Кистов, Евгений Карнаухов, Маргарита Лифанова, Валентина Ушакова, Георгий Гумилевский, Глеб Глебов, Юрий Галкин (II), Рита Гладунко, А. Зотов, Тамара Трушина...
Полный список актёров

Описание:
Действие происходит на одном из железнодорожных узлов Белоруссии. Молодой машинист грузового поезда Сергей Чобур на свой страх и риск совершает первый рейс с превышением весовых норм. В пути обнаруживается неисправность машины. Занявшись на ходу ремонтом, бригада допускает нарушение правил технической эксплуатации, и Чобура снимают с работы. При активном участии начальника политотдела Якушева опыт Чобура удается успешно повторить, и Сергея возвращают на паровоз. Этому обстоятельству более всего рады две девушки-железнодорожницы — инженер Людмила и диспетчер Оксана...

Источник: DVD R5
Качество видео: DVDRip-AVC
Формат видео: MKV

Видео: 712->760x570 (4:3), 25 fps, H264 ~ 1707 kbps avg, 0.168 bit/pixel
Аудио: 48 kHz, Dolby Digital AC3 2.0, 192 kbps

Раздача от:
Общее
Полное имя : Zelyonye.ogni.1955.DVDRip-AVC_[New-team]_by_AVP_Studio.mkv
Формат : Matroska
Версия формата : Version 2
Размер файла : 1,09 Гбайт
Продолжительность : 1 ч. 22 м.
Общий поток : 1901 Кбит/сек
Дата кодирования : UTC 2016-08-18 17:13:44
Программа кодирования : mkvmerge v6.1.0 ('Old Devil') built on Mar 4 2013 09:10:42
Библиотека кодирования : libebml v1.3.0 + libmatroska v1.4.0

Видео
Идентификатор : 1
Формат : AVC
Формат/Информация : Advanced Video Codec
Профиль формата : High@L4.1
Параметр CABAC формата : Да
Параметр ReFrames формата : 10 кадров
Идентификатор кодека : V_MPEG4/ISO/AVC
Продолжительность : 1 ч. 22 м.
Битрейт : 1707 Кбит/сек
Ширина : 712 пикселей
Высота : 570 пикселей
Соотношение сторон : 4:3
Режим частоты кадров : Постоянный
Частота кадров : 25,000 кадров/сек
Цветовое пространство : YUV
Субдискретизация насыщенности : 4:2:0
Битовая глубина : 8 бит
Тип развёртки : Прогрессивная
Бит/(Пиксели*Кадры) : 0.168
Размер потока : 980 Мбайт (88%)
Библиотека кодирования : x264 core 148 r2597 e86f3a1
Настройки программы : cabac=1 / ref=10 / deblock=1:-2:-1 / analyse=0x3:0x113 / me=umh / subme=10 / psy=1 / psy_rd=1.00:0.00 / mixed_ref=1 / me_range=32 / chroma_me=1 / trellis=2 / 8x8dct=1 / cqm=0 / deadzone=21,11 / fast_pskip=1 / chroma_qp_offset=-2 / threads=6 / lookahead_threads=1 / sliced_threads=0 / nr=0 / decimate=0 / interlaced=0 / bluray_compat=0 / constrained_intra=0 / bframes=8 / b_pyramid=2 / b_adapt=2 / b_bias=0 / direct=3 / weightb=1 / open_gop=0 / weightp=2 / keyint=250 / keyint_min=25 / scenecut=40 / intra_refresh=0 / rc=2pass / mbtree=0 / bitrate=1707 / ratetol=1.0 / qcomp=0.60 / qpmin=0 / qpmax=69 / qpstep=4 / cplxblur=20.0 / qblur=0.5 / ip_ratio=1.40 / pb_ratio=1.30 / aq=1:1.00
Default : Да
Forced : Нет

Аудио
Идентификатор : 2
Формат : AC-3
Формат/Информация : Audio Coding 3
Расширение режима : CM (complete main)
Параметр Endianness формата : Big
Идентификатор кодека : A_AC3
Продолжительность : 1 ч. 22 м.
Вид битрейта : Постоянный
Битрейт : 192 Кбит/сек
Каналы : 2 канала
Расположение каналов : Front: L R
Частота : 48,0 КГц
Частота кадров : 31,250 кадров/сек (1536 spf)
Метод сжатия : С потерями
Размер потока : 113 Мбайт (10%)
Default : Да
Forced : Нет
pb.wtf



Скачать Зелёные огни через торрент http://s017.radikal.ru/i414/1608/36/7a17f386bb61.png Скачать фильм Зелёные огни через торрент бесплантно в хорошем качестве Описание:Действие происходит на одном из железнодорожных узлов Белоруссии. Молодой машинист грузового поезда Сергей Чобур на свой страх и ... 10 10 4
Info! Золотая раздача, скачанное не засчитывается.
Торрент: Зарегистрирован [2016-08-26 08:13] · скачан: 24 раз
Статус: √ проверено
Размер: 1.09 GB
Как cкачать? Как скачать Зелёные огни через торрент | qTorrent

% Раздел Тема Автор DL S | L
Кино СССР [ 745 MB ] Зелёные огни [1955 СССР DVDRip от AVP Studio] AVP Studio Скачать
1 | 0
Кино СССР [ 1.09 GB ] Зелёные огни [1955 СССР DVDRip от AVP Studio] AVP Studio Скачать
1 | 0


>> Регистрируемся здесь <<






Отзывы и комментарии о схеме читаем и пишем здесь: ---> Отзывы и комментарии о схеме

Новые благодарочки в телеграм довольных пользователей:
скриншот   скриншот   скриншот   скриншот   скриншот
    Дорогой пользователь! Огромная просьба, поблагодарите релизера, оцените раздачу и оставьте свои комментарий, если Вы скачали Зелёные огни через торрент бесплатно! Внесите свою лепту в развитие PiratBit!
    Комментировать посты могут только пользователи прошедшие не сложную регистрацию
    Показать сообщения:    

    Зелёные огни через торрент
    Скачать бесплатно Зелёные огни
    Зелёные огни скачать торрент
    Зелёные огни смотреть онлайн
    Cкачать фильм Зелёные огни бесплатно
    Зелёные огни скачать торрент в хорошем качестве
    Зелёные огни смотреть онлайн бесплатно в хорошем качестве


    Вы не можете начинать темы
    Вы не можете отвечать на сообщения
    Вы не можете редактировать свои сообщения
    Вы не можете удалять свои сообщения
    Вы не можете голосовать в опросах
    Вы не можете прикреплять файлы к сообщениям
    Вы можете скачивать файлы