новый адрес пиратбит piratbit
Мега распродажа FORZA HORIZON 4 ULTIMATE+ВСЕ DLC+ОНЛАЙН всего за 499р. 349 руб. (супер цена). Внимание количество ограничено!!!

iTunes

1+1

iTunes

мы

iTunes

1

iTunes

Чернобыль

iTunes

Ральф против интернета

Лицензия

ПШазам

Лицензия

Игра престолов

Лицензия

30
pack

ВАЖНО

!!Акция!!

Alien_RageХит недели

RePack

Resident Evil 21

ИГРА 18+

pack

RePack

Metro:Exodus

!!Акция!!

Alien_Rage

RePack

fifa19

RePack

Assassins Creed: Odyssey

RePack

NEED FOR SPEED™ PAYBACK

3 сезон

9 сезон

Бесстыжие 9 сезон

Все сериалы

все сериалы на PB.wtf

RePack

FAR CRY 5
Ребята, катастрофически не хватает 1900р. для оплаты серверов за Октябрь (всвязи с блокировками трафик упал в 3 раза), 1-2р., выручайте.
  

Илья Муромец (Александр Птушко) [1956, СССР, фэнтези, DVDRip от AVP Studio] pb.wtf

Илья Муромец через торрент pb.wtf

Размер: 744 MB | Добавлен: 3 года 2 мес. назад | Торрент скачан:24 раза
Скачать  

26-08-2016 16:23 Илья Муромец Скачать торрент  

Илья Муромец
Страна: СССР
Производство: Мосфильм
Жанр: фэнтези
Год выпуска: 1956
Продолжительность: 01:26:45

Перевод: не требуется
Оригинальная аудиодорожка: русский
Cубтитры: нет

Режиссер: Александр Птушко

В ролях: Борис Андреев, Шукур Бурханов, Андрей Абрикосов, Наталья Медведева, Нинель Мышкова, Сергей Мартинсон, Георгий Дёмин, Александр Шворин, Владимир Соловьев, Михаил Пуговкин, Сергей Столяров, Ия Арепина, Тамара Носова, Александра Данилова, Николай Гладков, Пол Фрис, Майк Уоллес, Ау-Сон-Хи, Муратбек Рыскулов, Владимир Тягушев, Садыкбек Джаманов, Шамши Тюменбаев...

Описание:
Защитник Руси, богатырь Илья Муромец по навету бояр попадает в княжеское подземелье. Но когда на родную землю вновь приходит беда, вынужден князь идти на поклон Муромцу и друзьям его — Алеше Поповичу и Добрыне Никитичу…

Исходник: DVD9 R5
Тип релиза: DVDRip
Контейнер: AVI

Видео: 704x288 (2,40:1), 25 fps, XviD ~ 1062 kbps avg, 0.210 bit/pixel
Аудио: 48 kHz, MP3 2.0, 128 kbps

Раздача от:
Общее
Полное имя : Il'ja.Muromec.1956.DVDRip_[Youtracker]_by_AVP Studio.avi
Формат : AVI
Формат/Информация : Audio Video Interleave
Размер файла : 744 Мбайт
Продолжительность : 1 ч. 26 м.
Общий поток : 1200 Кбит/сек
Программа кодирования : VirtualDubMod 1.5.10.3 | www.virtualdub-fr.org || (build 2550/release)
Библиотека кодирования : VirtualDubMod build 2550/release

Видео
Идентификатор : 0
Формат : MPEG-4 Visual
Профиль формата : Advanced Simple@L5
Параметр BVOP формата : 1
Параметр QPel формата : Нет
Параметр GMC формата : Без точки перехода
Параметр матрицы формата : Выборочная
Идентификатор кодека : XVID
Идентификатор кодека/Подсказка : XviD
Продолжительность : 1 ч. 26 м.
Битрейт : 1062 Кбит/сек
Ширина : 704 пикселя
Высота : 288 пикселей
Соотношение сторон : 2,40:1
Частота кадров : 25,000 кадров/сек
Цветовое пространство : YUV
Субдискретизация насыщенности : 4:2:0
Битовая глубина : 8 бит
Тип развёртки : Прогрессивная
Метод сжатия : С потерями
Бит/(Пиксели*Кадры) : 0.210
Размер потока : 659 Мбайт (89%)
Библиотека кодирования : XviD 65

Аудио
Идентификатор : 1
Формат : MPEG Audio
Версия формата : Version 1
Профиль формата : Layer 3
Идентификатор кодека : 55
Идентификатор кодека/Подсказка : MP3
Продолжительность : 1 ч. 26 м.
Вид битрейта : Постоянный
Битрейт : 128 Кбит/сек
Каналы : 2 канала
Частота : 48,0 КГц
Метод сжатия : С потерями
Размер потока : 79,4 Мбайт (11%)
Выравнивание : Соединение по промежуткам
Продолжительность промежутка : 40 мс. (1,00 видеокадр)
Время предзагрузки промежутка : 504 мс.
Библиотека кодирования : L3.99r
Настройки программы : -m s -V 4 -q 2 -lowpass 17 -b 128
pb.wtf



Скачать Илья Муромец через торрент http://s2.hostingkartinok.com/uploads/images/2013/03/24cfd42f820632987ff966e87457a8a3.png Скачать фильм Илья Муромец через торрент бесплантно в хорошем качестве Описание:Защитник Руси, богатырь Илья Муромец по навету бояр попадает в княжеское подземелье. Но когда на родную землю вновь приходит беда, ... 10 10 2
Info! Золотая раздача, скачанное не засчитывается.
Торрент: Зарегистрирован [2016-08-26 16:23] · скачан: 24 раз
Статус: √ проверено
Размер: 744 MB
Как cкачать? Как скачать Илья Муромец через торрент | qTorrent

% Раздел Тема Автор DL S | L
Наши Мультфильмы (HD, WEB-DL 720p, 1080p) [ 6.75 GB ] Алеша Попович и Тугарин Змей / Добрыня Никитич и Змей Горыныч / Илья Муромец и Соловей Разбойник / Три богатыря и Шамаханская царица / Три богатыря на дальних берегах [2004-2012 мультфильм BDRip 720p] от R.G. PiratFilms Demonessa Скачать
1 | 0
Кино СССР [ 1.09 GB ] Илья Муромец [1956 СССР HDTVRip от AVP Studio] AVP Studio Скачать
1 | 0
Кино СССР [ 1.45 GB ] Илья Муромец [1956 СССР HDTVRip от AVP Studio] AVP Studio Скачать
1 | 0
Кино СССР [ 745 MB ] Илья Муромец [1956 СССР HDTVRip от AVP Studio] AVP Studio Скачать
1 | 0
Наши фильмы (DVD фильмы) [ 4.37 GB ] Илья Муромец [1956 СССР DVD5 от AVP Studio] Orig + Eng + Sub AVP Studio Скачать
1 | 0
Приключения, Квесты, Логические [ 3.07 GB ] Алеша Попович и Тугарин Змей / Добрыня Никитич и Змей Горыныч / Илья Муромец и Соловей Разбойник [Repack RU] Ubik1 Скачать
1 | 0
Наши Мультфильмы (HD, WEB-DL 720p, 1080p) [ 6.51 GB ] Алёша Попович и Тугарин Змей / Добрыня Никитич и Змей Горыныч / Илья Муромец и Соловей Разбойник [2007 BDRip] ACFIORENTINA Скачать
1 | 0


>> Регистрируемся здесь <<






Отзывы и комментарии о схеме читаем и пишем здесь: ---> Отзывы и комментарии о схеме

Новые благодарочки в телеграм довольных пользователей:
скриншот   скриншот   скриншот   скриншот   скриншот
    Дорогой пользователь! Огромная просьба, поблагодарите релизера, оцените раздачу и оставьте свои комментарий, если Вы скачали Илья Муромец через торрент бесплатно! Внесите свою лепту в развитие PiratBit!
    Комментировать посты могут только пользователи прошедшие не сложную регистрацию
    Показать сообщения:    

    Илья Муромец через торрент
    Скачать бесплатно Илья Муромец
    Илья Муромец скачать торрент
    Илья Муромец смотреть онлайн
    Cкачать фильм Илья Муромец бесплатно
    Илья Муромец скачать торрент в хорошем качестве
    Илья Муромец смотреть онлайн бесплатно в хорошем качестве


    Вы не можете начинать темы
    Вы не можете отвечать на сообщения
    Вы не можете редактировать свои сообщения
    Вы не можете удалять свои сообщения
    Вы не можете голосовать в опросах
    Вы не можете прикреплять файлы к сообщениям
    Вы можете скачивать файлы