Ссылка на приватное зеркало нашего сайта всего за 1$. Внимание количество ограничено!!!

2 сезон

iTunes

1 сезон

1

2 сезон

2 сезон

iTunes

1 сезон

RePack

30

Ultimate

ВАЖНО

ИГРА 18+

pack

RePack

MK11
pack

Забери бонус

RePack

jed

!!Акция!!

Alien_Rage

RePack

fifa19

RePack

Assassins Creed: Odyssey

RePack

NEED FOR SPEED™ PAYBACK

4 сезон

9 сезон

Бесстыжие 9 сезон

Все сериалы

все сериалы на PB.wtf

RePack

FAR CRY 5
  

Большой Босс / The Boss (Бен Фэлкоун ) [2016, комедия, Blu-ray Remux 1080р, Дубляж [Лицензия] pb.wtf

Большой Босс через торрент pb.wtf

Размер: 25.31 GB | Добавлен: 4 года 3 мес. назад | Торрент скачан:24 раза
Скачать  

26-08-2016 16:55 Большой Босс Скачать торрент  

Большой Босс / The Boss

Год выпуска: 2016
Страна: США
Жанр: комедия

Продолжительность: 01:43:06
Перевод: Дубляж [Лицензия]
Субтитры: русский, английский
Режиссер: Бен Фэлкоун
В ролях: Мелисса МакКарти (Michelle Darnell), Кристен Белл (Claire), Питер Динклэйдж (Renault), Элла Андерсон (Rachel), Тайлер Лабин (Mike Beals), Кэти Бейтс (Ida Marquette), Сесили Стронг (Dana Dandridge), Мэри Сон (Jan Keller), Кристен Шаал (Scout Leader Sandy), Эва Питерсон (Chrystal), Тимоти С. Саймонс (Stephan), Алеандра Ньюкомб (Mariana)
Описание:
В центре сюжета бизнес-леди, промышленный магнат, очутившаяся в тюрьме, погорев на теневых сделках. Отсидев положенное, женщина мечтает искупить вину и сменить статус мошенницы на всеобщую любимицу, только не все жертвы ее махинаций готовы пересмотреть свое отношение к ней.
Рейтинг:

MPAA: R - Лицам до 17 лет обязательно присутствие взрослого
Качество: Blu-ray Remux 1080р
Формат: MKV
Видео: AVC, 1920x1080 (16:9), 31792 kbps, 23,976 fps, 0,639 bpp
Аудио №1: русский / DTS / 5.1 / 48 kHz / 768 kbps / 24 bit
Аудио №2: русский / AC3 / 5.1 / 48 kHz / 448 kbps /
Аудио №3: английский / DTS-HD / 5.1 / 48 kHz / 3648 kbps / 24 bit (Core: 5.1 / 48 kHz / 1509 kbps / 24 bit)
Навигация по главам: есть

General
Unique ID \The.Boss.2016.BDREMUX.1080p.ExKinoRay.mkv
Format : Matroska
Format version : Version 4 / Version 2
File size : 25.3 GiB
Duration : 1 h 43 min
Overall bit rate mode : Variable
Overall bit rate : 35.1 Mb/s
Movie name : The.Boss.2016.BDREMUX.1080p.ExKinoRay
Encoded date : UTC 2016-08-19 23:22:26
Writing application : mkvmerge v8.3.0 ('Over the Horizon') 64bit
Writing library : libebml v1.3.1 + libmatroska v1.4.2

Video
ID : 1
Format : AVC
Format/Info : Advanced Video Codec
Format profile : High@L4.1
Format settings, CABAC : Yes
Format settings, ReFrames : 4 frames
Codec ID : V_MPEG4/ISO/AVC
Duration : 1 h 38 min
Bit rate mode : Variable
Bit rate : 31.8 Mb/s
Maximum bit rate : 35.0 Mb/s
Width : 1 920 pixels
Height : 1 080 pixels
Display aspect ratio : 16:9
Frame rate mode : Constant
Frame rate : 23.976 (24000/1001) FPS
Color space : YUV
Chroma subsampling : 4:2:0
Bit depth : 8 bits
Scan type : Progressive
Bits/(Pixel*Frame) : 0.639
Stream size : 21.9 GiB (87%)
Language : English
Default : Yes
Forced : No

Audio #1
ID : 2
Format : DTS
Format/Info : Digital Theater Systems
Mode : 16
Format settings, Endianness : Big
Codec ID : A_DTS
Duration : 1 h 38 min
Bit rate mode : Constant
Bit rate : 768 kb/s
Channel(s) : 6 channels
Channel positions : Front: L C R, Side: L R, LFE
Sampling rate : 48.0 kHz
Frame rate : 93.750 FPS (512 spf)
Bit depth : 24 bits
Compression mode : Lossy
Stream size : 543 MiB (2%)
Title : DUB [Blu-Ray CEE]
Language : Russian
Default : Yes
Forced : No

Audio #2
ID : 3
Format : AC-3
Format/Info : Audio Coding 3
Mode extension : CM (complete main)
Format settings, Endianness : Big
Codec ID : A_AC3
Duration : 1 h 38 min
Bit rate mode : Constant
Bit rate : 448 kb/s
Channel(s) : 6 channels
Channel positions : Front: L C R, Side: L R, LFE
Sampling rate : 48.0 kHz
Frame rate : 31.250 FPS (1536 spf)
Compression mode : Lossy
Stream size : 317 MiB (1%)
Title : DUB-AC3 [Blu-Ray CEE]
Language : Russian
Default : No
Forced : No

Audio #3
ID : 4
Format : DTS
Format/Info : Digital Theater Systems
Format profile : MA / Core
Mode : 16
Format settings, Endianness : Big
Codec ID : A_DTS
Duration : 1 h 38 min
Bit rate mode : Variable / Constant
Bit rate : 3 649 kb/s / 1 509 kb/s
Channel(s) : 6 channels
Channel positions : Front: L C R, Side: L R, LFE
Sampling rate : 48.0 kHz
Frame rate : 93.750 FPS (512 spf)
Bit depth : 24 bits
Compression mode : Lossless / Lossy
Stream size : 2.52 GiB (10%)
Title : Original
Language : English
Default : No
Forced : No

Text #1
ID : 5
Format : UTF-8
Codec ID : S_TEXT/UTF8
Codec ID/Info : UTF-8 Plain Text
Duration : 1 h 18 min
Bit rate : 1 b/s
Count of elements : 17
Stream size : 776 Bytes (0%)
Title : Forced
Language : Russian
Default : Yes
Forced : No

Text #2
ID : 6
Format : UTF-8
Codec ID : S_TEXT/UTF8
Codec ID/Info : UTF-8 Plain Text
Duration : 1 h 36 min
Bit rate : 143 b/s
Count of elements : 1970
Stream size : 101 KiB (0%)
Title : Full
Language : Russian
Default : No
Forced : No

Text #3
ID : 7
Format : UTF-8
Codec ID : S_TEXT/UTF8
Codec ID/Info : UTF-8 Plain Text
Duration : 1 h 42 min
Bit rate : 102 b/s
Count of elements : 2326
Stream size : 76.7 KiB (0%)
Title : SDH
Language : English
Default : No
Forced : No

Menu
00:00:00.000 : en:
00:05:59.984 : en:
00:09:41.455 : en:
00:14:48.345 : en:
00:20:44.159 : en:
00:24:03.817 : en:
00:29:59.839 : en:
00:35:27.542 : en:
00:39:59.105 : en:
00:44:55.484 : en:
00:50:30.026 : en:
00:53:32.208 : en:
00:59:51.296 : en:
01:05:55.076 : en:
01:10:32.061 : en:
01:13:54.680 : en:
01:19:30.223 : en:
01:25:08.019 : en:
01:32:06.229 : en:
01:33:26.434 : en:
Скриншоты:
pb.wtf



Скачать Большой Босс через торрент http://i5.imageban.ru/out/2016/08/26/10014bac4786f5df7a0d032c3b759853.jpg Скачать фильм Большой Босс через торрент бесплантно в хорошем качестве Описание: В центре сюжета бизнес-леди, промышленный магнат, очутившаяся в тюрьме, погорев на теневых сделках. Отсидев положенное, женщина ... 10 10 2
Торрент: Зарегистрирован [2016-08-26 16:55] · скачан: 24 раз
Статус: √ проверено
Размер: 25.31 GB
Как cкачать? Как скачать Большой Босс через торрент | qTorrent

% Раздел Тема Автор DL S | L
Азиатские фильмы [ 3.7 GB ] Большой босс / Tang shan da xiong [1971 HDRip-HEVC 10bit ] ADVOKAT69 Скачать
1 | 0
Фильмы 2016 [DVDrip, WEB-DLRip, HDrip] (DUB, MVO) [ 1.46 GB ] Большой Босс / The Boss [2016 BDRip-AVC от sokol_ok] [Театральная версия] sokol_ok Скачать
2 | 0
Фильмы 2016 [DVDrip, WEB-DLRip, HDrip] (DUB, MVO) [ 1.46 GB ] Большой Босс / The Boss [2016 BDRip] DUB Twi7ter Скачать
2 | 0
Фильмы 2016 [DVDrip, WEB-DLRip, HDrip] (DUB, MVO) [ 2.18 GB ] Большой Босс / The Boss [2016 BDRip-AVC от sokol_ok] [Театральная версия] sokol_ok Скачать
2 | 0
Фильмы 2016 [DVDrip, WEB-DLRip, HDrip] (DUB, MVO) [ 746 MB ] Большой Босс / The Boss [2016 BDRip-AVC от sokol_ok] [Театральная версия] sokol_ok Скачать
2 | 0
Фильмы без перевода [ 25.73 GB ] Большой Босс / The Boss [2016 BD Remux [Оригинал] smaster Скачать
1 | 0
Фильмы [HD 720p, 1080p] (Хороший звук DUB, MVO) [ 11.18 GB ] Большой Босс / The Boss [2016 BDRip 1080p] - [] -Lexx- Скачать
1 | 0

28-11-2019 20:33  

Отключить всю рекламу на сайте

27-08-2016 07:23 Большой Босс Скачать торрент  

Как фильм?pb.wtf



    Дорогой пользователь! Огромная просьба, поблагодарите релизера, оцените раздачу и оставьте свои комментарий, если Вы скачали Большой Босс через торрент бесплатно! Внесите свою лепту в развитие PiratBit!
    Комментировать посты могут только пользователи прошедшие не сложную регистрацию
    Показать сообщения:    

    Большой Босс через торрент
    Скачать бесплатно Большой Босс
    Большой Босс скачать торрент
    Большой Босс смотреть онлайн
    Cкачать фильм Большой Босс бесплатно
    Большой Босс скачать торрент в хорошем качестве
    Большой Босс смотреть онлайн бесплатно в хорошем качестве


    Вы не можете начинать темы
    Вы не можете отвечать на сообщения
    Вы не можете редактировать свои сообщения
    Вы не можете удалять свои сообщения
    Вы не можете голосовать в опросах
    Вы не можете прикреплять файлы к сообщениям
    Вы можете скачивать файлы