2 сезон

iTunes

1 сезон

1

iTunes

iTunes

iTunes

1 сезон

RePack

30

ИГРА 18+

pack

ВАЖНО

!!Акция!!

Alien_RageХит недели

RePack

MK11
pack

Забери бонус

RePack

jed

!!Акция!!

Alien_Rage

RePack

fifa19

RePack

Assassins Creed: Odyssey

RePack

NEED FOR SPEED™ PAYBACK

4 сезон

9 сезон

Бесстыжие 9 сезон

Все сериалы

все сериалы на PB.wtf

RePack

FAR CRY 5
  

13 часов: Тайные солдаты Бенгази / 13 Hours (Майкл Бэй ) [2016, боевик, триллер, драма, BDRip 720p] Дубляж [Blu-ray CEE] pb.wtf

13 часов: Тайные солдаты Бенгази через торрент pb.wtf

Размер: 7.95 GB | Добавлен: 4 года 2 мес. назад | Торрент скачан:214 раз
Скачать  

26-08-2016 19:48 13 часов: Тайные солдаты Бенгази Скачать торрент  

13 часов: Тайные солдаты Бенгази / 13 Hours

Год выпуска: 2016
Страна: США
Жанр: боевик, триллер, драма, военный

Продолжительность: 02:24:29
Перевод: Дубляж [Blu-ray CEE]
Субтитры: русский, украинский, английский
Режиссер: Майкл Бэй
В ролях: Джон Красински (Jack Silva), Джеймс Бэдж Дэйл (Tyrone «Rone» Woods), Пабло Шрайбер (Kris «Tanto» Paronto), Дэвид Денман (Dave «Boon» Benton), Доминик Фумуса (John «Tig» Tiegen), Макс Мартини (Mark «Oz» Geist), Алексия Бальер (Sona Jillani), Дэвид Костабайл (Bob), Пейман Моаади (Amahl), Мэтт Летчер (Ambassador Chris Stevens), Тоби Стивенс (Glen «Bub» Doherty), Деметриус Гросс (DS Dave Ubben)
Описание:
2012 год. Бенгази, Ливия. Группа террористов решает «отпраздновать» события 11 сентября нападением на американское посольство. Шестерке бойцов из элитного спецотряда приказано вмешаться только в крайнем случае. Но когда под угрозой десятки жизней, долг и совесть берут верх над субординацией. И мужественные солдаты без колебаний вступают в бой с яростной группировкой боевиков. Бой, который для всех шестерых, скорее всего, станет последним.
Рейтинг:

MPAA: R - Лицам до 17 лет обязательно присутствие взрослого
Качество: BDRip 720p
Формат: MKV
Видео: AVC, 1280x534 (2.40:1), 6597 kbps, 23,976 fps, 0,403 bpp
Аудио №1: русский / AC3 / 5.1 / 48 kHz / 640 kbps /
Аудио №2: английский / AC3 / 5.1 / 48 kHz / 640 kbps /
Навигация по главам: есть

General
Unique ID 13.Chasov.Taynyie.Soldaty.Bengazi.2016.BDRip.720p.mkv
Format : Matroska
Format version : Version 4 / Version 2
File size : 7.95 GiB
Duration : 2 h 24 min
Overall bit rate : 7 875 kb/s
Movie name : 13 Hours: The Secret Soldiers of Benghazi (2016)
Encoded date : UTC 2016-06-09 06:08:50
Writing application : mkvmerge v5.9.0 ('On The Loose') built on Dec 15 2012 16:39:58
Writing library : libebml v1.3.0 + libmatroska v1.4.0

Video
ID : 1
Format : AVC
Format/Info : Advanced Video Codec
Format profile : High@L4.1
Format settings, CABAC : Yes
Format settings, ReFrames : 9 frames
Codec ID : V_MPEG4/ISO/AVC
Duration : 2 h 24 min
Bit rate : 6 597 kb/s
Width : 1 280 pixels
Height : 534 pixels
Display aspect ratio : 2.40:1
Frame rate mode : Constant
Frame rate : 23.976 (24000/1001) FPS
Color space : YUV
Chroma subsampling : 4:2:0
Bit depth : 8 bits
Scan type : Progressive
Bits/(Pixel*Frame) : 0.403
Stream size : 6.50 GiB (82%)
Title : potroks
Writing library : x264 core 148 r2694M 3b70645
Encoding settings : cabac=1 / ref=9 / deblock=1:-2:-2 / analyse=0x3:0x133 / me=umh / subme=11 / psy=1 / psy_rd=1.00:0.10 / mixed_ref=1 / me_range=48 / chroma_me=1 / trellis=2 / 8x8dct=1 / cqm=0 / deadzone=21,11 / fast_pskip=0 / chroma_qp_offset=-3 / threads=9 / lookahead_threads=2 / sliced_threads=0 / nr=0 / decimate=1 / interlaced=0 / bluray_compat=0 / constrained_intra=0 / bframes=10 / b_pyramid=2 / b_adapt=2 / b_bias=0 / direct=3 / weightb=1 / open_gop=0 / weightp=2 / keyint=240 / keyint_min=2 / scenecut=40 / intra_refresh=0 / rc_lookahead=100 / rc=2pass / mbtree=0 / bitrate=6597 / ratetol=1.0 / qcomp=0.70 / qpmin=0 / qpmax=69 / qpstep=4 / cplxblur=20.0 / qblur=0.5 / vbv_maxrate=50000 / vbv_bufsize=60000 / nal_hrd=none / filler=0 / ip_ratio=1.40 / pb_ratio=1.30 / aq=1:0.80
Language : English
Default : Yes
Forced : No

Audio #1
ID : 2
Format : AC-3
Format/Info : Audio Coding 3
Mode extension : CM (complete main)
Format settings, Endianness : Big
Codec ID : A_AC3
Duration : 2 h 24 min
Bit rate mode : Constant
Bit rate : 640 kb/s
Channel(s) : 6 channels
Channel positions : Front: L C R, Side: L R, LFE
Sampling rate : 48.0 kHz
Frame rate : 31.250 FPS (1536 spf)
Compression mode : Lossy
Stream size : 661 MiB (8%)
Title : Dub | DD 5.1 @ 640 kbps - Blu-Ray CEE
Language : Russian
Default : Yes
Forced : No

Audio #2
ID : 3
Format : AC-3
Format/Info : Audio Coding 3
Mode extension : CM (complete main)
Format settings, Endianness : Big
Codec ID : A_AC3
Duration : 2 h 24 min
Bit rate mode : Constant
Bit rate : 640 kb/s
Channel(s) : 6 channels
Channel positions : Front: L C R, Side: L R, LFE
Sampling rate : 48.0 kHz
Frame rate : 31.250 FPS (1536 spf)
Compression mode : Lossy
Stream size : 661 MiB (8%)
Title : Original | DD 5.1 @ 640 kbps
Language : English
Default : No
Forced : No

Text #1
ID : 4
Format : UTF-8
Codec ID : S_TEXT/UTF8
Codec ID/Info : UTF-8 Plain Text
Title : Forced
Language : Russian
Default : Yes
Forced : No

Text #2
ID : 5
Format : UTF-8
Codec ID : S_TEXT/UTF8
Codec ID/Info : UTF-8 Plain Text
Title : Blu-ray
Language : Russian
Default : No
Forced : No

Text #3
ID : 6
Format : UTF-8
Codec ID : S_TEXT/UTF8
Codec ID/Info : UTF-8 Plain Text
Title : Forced [potroks]
Language : Ukrainian
Default : No
Forced : No

Text #4
ID : 7
Format : UTF-8
Codec ID : S_TEXT/UTF8
Codec ID/Info : UTF-8 Plain Text
Title : Blu-ray
Language : Ukrainian
Default : No
Forced : No

Text #5
ID : 8
Format : UTF-8
Codec ID : S_TEXT/UTF8
Codec ID/Info : UTF-8 Plain Text
Title : Full
Language : English
Default : No
Forced : No

Text #6
ID : 9
Format : UTF-8
Codec ID : S_TEXT/UTF8
Codec ID/Info : UTF-8 Plain Text
Title : SDH
Language : English
Default : No
Forced : No

Text #7
ID : 10
Format : UTF-8
Codec ID : S_TEXT/UTF8
Codec ID/Info : UTF-8 Plain Text
Title : SDH-Colored
Language : English
Default : No
Forced : No

Menu
00:00:00.000 : en:Chapter 01
00:04:47.662 : en:Chapter 02
00:09:01.541 : en:Chapter 03
00:15:31.555 : en:Chapter 04
00:21:12.229 : en:Chapter 05
00:26:48.773 : en:Chapter 06
00:31:22.755 : en:Chapter 07
00:34:20.058 : en:Chapter 08
00:39:36.123 : en:Chapter 09
00:47:12.871 : en:Chapter 10
00:53:59.027 : en:Chapter 11
01:02:27.744 : en:Chapter 12
01:10:03.324 : en:Chapter 13
01:23:02.477 : en:Chapter 14
01:27:11.100 : en:Chapter 15
01:34:50.685 : en:Chapter 16
01:42:36.358 : en:Chapter 17
01:48:08.148 : en:Chapter 18
01:53:47.278 : en:Chapter 19
02:00:22.882 : en:Chapter 20
02:07:19.465 : en:Chapter 21
02:18:25.422 : en:Chapter 22
Скриншоты:
pb.wtf



Скачать 13 часов: Тайные солдаты Бенгази через торрент http://i5.imageban.ru/out/2016/08/26/045fcdc9287d47744c6a7f366e96ff1b.jpg Скачать фильм 13 часов: Тайные солдаты Бенгази через торрент бесплантно в хорошем качестве Описание: 2012 год. Бенгази, Ливия. Группа террористов решает «отпраздновать» события 11 сентября нападением на американское посольство. ... 9.4 10 9
Info! Золотая раздача, скачанное не засчитывается.
Торрент: Зарегистрирован [2016-08-26 19:48] · скачан: 214 раз
Статус: √ проверено
Размер: 7.95 GB
Как cкачать? Как скачать 13 часов: Тайные солдаты Бенгази через торрент | qTorrent

% Раздел Тема Автор DL S | L
Фильмы (HD 720p, 1080p) (48-60 fps) [ 4.43 GB ] 13 часов: Тайные солдаты Бенгази / 13 Hours: The Secret Soldiers of Benghazi [2016 военный BDRip 720p / 60 FPS ] от R.G. HD-Films slaventi-69 Скачать
3 | 0
Ultra HD (UHD: 2K, 4K, 8K) — видео сверхвысокой чёткости [ 21.09 GB ] 13 часов: Тайные солдаты Бенгази / 13 Hours [2015 военный UHD BDRip 2160p] DUB [] + AVO [Гаврилов] sheker187 Скачать
1 | 0
Ultra HD (UHD: 2K, 4K, 8K) — видео сверхвысокой чёткости [ 71.72 GB ] 13 часов: Тайные солдаты Бенгази / 13 Hours: The Secret Soldiers of Benghazi [2016 военный UHD BDRemux 2160p] DUB [] bober100 Скачать
1 | 0
Фильмы с авторской озвучкой [ 2.18 GB ] 13 часов: Тайные солдаты Бенгази / 13 Hours: The Secret Soldiers of Benghazi [2016 военный BDRip] [AVO] killermax2013 Скачать
1 | 0
T Релизы по Парсеру [Игры, Сериалы и Фильмы и другое...] [ 2.91 GB ] 13 часов: Тайные солдаты Бенгази / 13 Hours BDRip-AVC от HELLYWOOD / smaster Скачать
1 | 0
Фильмы (DVD фильмы) [ 7.35 GB ] 13 часов: Тайные солдаты Бенгази / 13 Hours [2016 военный DVD9] R5 voovaz Скачать
1 | 0
Фильмы (Blu-ray, BD-Remux, HDDVD) [ 40.38 GB ] 13 часов: Тайные солдаты Бенгази / 13 Hours: The Secret Soldiers of Benghazi [2016 военный Blu-Ray CEE] Russian Mafia Скачать
1 | 0

28-11-2019 20:33  

Отключить всю рекламу на сайте

26-08-2016 20:15 13 часов: Тайные солдаты Бенгази Скачать торрент  

Мужественные америкосы вступают в бой с боевиками.
Чем не патриотизм воспитываемый с молоком матери.
Побольше бы российских фильмов с таким сюжетом,
и не было в армии расстрелов дедов салабонами.
pb.wtf



27-08-2016 03:56 13 часов: Тайные солдаты Бенгази Скачать торрент  

в фильме крутые ребята)))pb.wtf





Последний раз редактировалось: bober100 (2017-03-20 14:48), всего редактировалось 2 раз(а)

20-03-2017 13:18 13 часов: Тайные солдаты Бенгази Скачать торрент  

bober100 писал(а):

Они из посольства как собаки сбежали) а фильме крутые ребята

Низковато для модера такой комент писатьpb.wtf



30-06-2017 17:19 13 часов: Тайные солдаты Бенгази Скачать торрент  

Спасибо! Достойный фильм!pb.wtf



    Дорогой пользователь! Огромная просьба, поблагодарите релизера, оцените раздачу и оставьте свои комментарий, если Вы скачали 13 часов: Тайные солдаты Бенгази через торрент бесплатно! Внесите свою лепту в развитие PiratBit!
    Комментировать посты могут только пользователи прошедшие не сложную регистрацию
    Показать сообщения:    

    13 часов: Тайные солдаты Бенгази через торрент
    Скачать бесплатно 13 часов: Тайные солдаты Бенгази
    13 часов: Тайные солдаты Бенгази скачать торрент
    13 часов: Тайные солдаты Бенгази смотреть онлайн
    Cкачать фильм 13 часов: Тайные солдаты Бенгази бесплатно
    13 часов: Тайные солдаты Бенгази скачать торрент в хорошем качестве
    13 часов: Тайные солдаты Бенгази смотреть онлайн бесплатно в хорошем качестве


    Вы не можете начинать темы
    Вы не можете отвечать на сообщения
    Вы не можете редактировать свои сообщения
    Вы не можете удалять свои сообщения
    Вы не можете голосовать в опросах
    Вы не можете прикреплять файлы к сообщениям
    Вы можете скачивать файлы