Ссылка на приватное зеркало нашего сайта всего за 1$. Внимание количество ограничено!!!

2 сезон

iTunes

1 сезон

1

iTunes

iTunes

iTunes

1 сезон

RePack

30

ИГРА 18+

pack

ВАЖНО

!!Акция!!

Alien_RageХит недели

RePack

MK11
pack

Забери бонус

RePack

jed

!!Акция!!

Alien_Rage

RePack

fifa19

RePack

Assassins Creed: Odyssey

RePack

NEED FOR SPEED™ PAYBACK

4 сезон

9 сезон

Бесстыжие 9 сезон

Все сериалы

все сериалы на PB.wtf

RePack

FAR CRY 5
  

Лапочка 3 / Honey 3: Dare to Dance (Билле Вудрафф ) [2016, семейный, BDRip 1080p [Дубляж] pb.wtf

Лапочка 3 через торрент pb.wtf

Размер: 7.89 GB | Добавлен: 4 года 1 мес. назад | Торрент скачан:39 раз
Скачать  

27-08-2016 07:21 Лапочка 3 Скачать торрент  

Лапочка 3 / Honey 3: Dare to Dance

Год выпуска: 2016
Страна: США
Жанр: семейный
Продолжительность: 01:36:16
Перевод: Профессиональный (полное дублирование)
Режиссер: Билле Вудрафф
В ролях: Кэсси (Melea Martin), Кенни Вормолд (Erik Wildwood), Бобби Локвуд (Laser), Дена Каплан (Nadine), Sibongile Mlambo (Ishani Magona), Сивуйеле Нгеси (DJ Zubair Khumalo), Samantha Willoughby (Core Dancer / Beach Party Girl 2), Питер Батлер (Uncle Simon), Эдриан Голли (Mr. Sammy Wright), Клэйтон Эвертсон (Taj Mfeka), Джаррид Гедульд (Construction Worker), Andrea Dondolo (Mrs. Mfele)
Описание:
За время учёбы в Кейптауне, Мели Мартин чувствовала себя связанной и ограниченной строгой политикой колледжа, и решила отправиться в собственный жизненный путь. В поисках использовать свой танцевальный талант и вдохновить окружающих, Мели арендует терпящий неудачи театр для постановки Hip-Hop мюзикла «Ромео и Джульетта». Но так же, как Капулетти и Монтекки, между участниками постановки происходят конфликты и недопонимания, угрожающие привести всю работу Мели к полному провалу...
Рейтинг:

MPAA: PG-13 - Детям до 13 лет просмотр не желателен
Качество: BDRip 1080p
Формат: MKV
Видео: AVC, 1920x1080 (16:9), 11288 kbps, 23,976 fps, 0,227 bpp
Аудио: русский / AC3 / 5.1 / 48 kHz / 448 kbps /
Навигация по главам: есть

General
Unique ID Honey.3.2O16.D.BDRip.1O8O.p.mkv
Format : Matroska
Format version : Version 2
File size : 7.89 GiB
Duration : 1 h 36 min
Overall bit rate : 11.7 Mb/s
Encoded date : UTC 2016-08-25 19:42:42
Writing application : mkvmerge v8.3.0 ('Over the Horizon') 64bit
Writing library : libebml v1.3.1 + libmatroska v1.4.2

Video
ID : 1
Format : AVC
Format/Info : Advanced Video Codec
Format profile : High@L4.1
Format settings, CABAC : Yes
Format settings, ReFrames : 4 frames
Codec ID : V_MPEG4/ISO/AVC
Duration : 1 h 36 min
Bit rate : 11.3 Mb/s
Width : 1 920 pixels
Height : 1 080 pixels
Display aspect ratio : 16:9
Frame rate mode : Constant
Frame rate : 23.976 (24000/1001) FPS
Color space : YUV
Chroma subsampling : 4:2:0
Bit depth : 8 bits
Scan type : Progressive
Bits/(Pixel*Frame) : 0.227
Stream size : 7.59 GiB (96%)
Default : Yes
Forced : No

Audio
ID : 2
Format : AC-3
Format/Info : Audio Coding 3
Mode extension : CM (complete main)
Format settings, Endianness : Big
Codec ID : A_AC3
Duration : 1 h 36 min
Bit rate mode : Constant
Bit rate : 448 kb/s
Channel(s) : 6 channels
Channel positions : Front: L C R, Side: L R, LFE
Sampling rate : 48.0 kHz
Frame rate : 31.250 FPS (1536 spf)
Compression mode : Lossy
Stream size : 309 MiB (4%)
Language : Russian
Default : Yes
Forced : Yes

Menu
00:00:00.000 : en:
00:04:30.770 : en:
00:08:19.958 : en:
00:12:40.843 : en:
00:17:15.826 : en:
00:22:19.463 : en:
00:27:58.844 : en:
00:32:03.547 : en:
00:39:09.305 : en:
00:44:10.773 : en:
00:51:03.060 : en:
00:54:47.826 : en:
01:01:20.010 : en:
01:06:50.798 : en:
01:10:44.407 : en:
01:14:29.715 : en:
01:22:31.196 : en:
01:27:23.780 : en:
01:30:38.808 : en:
01:32:43.516 : en:
Скриншоты:
pb.wtf



Скачать Лапочка 3 через торрент http://i1.imageban.ru/out/2016/08/27/2cfe6a6ac2c6cdcc759fae1feae4a5c6.jpg Скачать фильм Лапочка 3 через торрент бесплантно в хорошем качестве Описание: За время учёбы в Кейптауне, Мели Мартин чувствовала себя связанной и ограниченной строгой политикой колледжа, и решила ... 10 10 3
Торрент: Зарегистрирован [2016-08-27 07:21] · скачан: 39 раз
Статус: T временная
Размер: 7.89 GB
Как cкачать? Как скачать Лапочка 3 через торрент | qTorrent

% Раздел Тема Автор DL S | L
Фильмы (Blu-ray, BD-Remux, HDDVD) [ 36.15 GB ] Лапочка 3 / Honey 3: Dare to Dance [2016 Blu-Ray CEE] DUB лицензия Russian Mafia Скачать
1 | 0
Фильмы 2016 [DVDrip, WEB-DLRip, HDrip] (DUB, MVO) [ 2.17 GB ] Лапочка 3 / Honey 3: Dare to Dance [2016 Мело BDRip-AVC от _denis_100 / NNNB] _denis_100 Скачать
1 | 0
Фильмы (Blu-ray, BD-Remux, HDDVD) [ 21.3 GB ] Лапочка 3 / Honey 3: Dare to Dance [2016 Мело BDRemux 1080p] от ExKinoRay / Russian Mafia Скачать
1 | 0
Фильмы 2016 [DVDrip, WEB-DLRip, HDrip] (DUB, MVO) [ 1.46 GB ] Лапочка 3 / Honey 3: Dare to Dance [2016 HDRip "BD CEE"] coc900 Скачать
1 | 0
T Фильмы [HD 720p, 1080p] (Хороший звук DUB, MVO) [ 3.96 GB ] Лапочка 3 / Honey 3: Dare to Dance [2016 BDRip 720p] smaster Скачать
1 | 0

28-11-2019 20:33  

Отключить всю рекламу на сайте

    Дорогой пользователь! Огромная просьба, поблагодарите релизера, оцените раздачу и оставьте свои комментарий, если Вы скачали Лапочка 3 через торрент бесплатно! Внесите свою лепту в развитие PiratBit!
    Комментировать посты могут только пользователи прошедшие не сложную регистрацию
    Показать сообщения:    

    Лапочка 3 через торрент
    Скачать бесплатно Лапочка 3
    Лапочка 3 скачать торрент
    Лапочка 3 смотреть онлайн
    Cкачать фильм Лапочка 3 бесплатно
    Лапочка 3 скачать торрент в хорошем качестве
    Лапочка 3 смотреть онлайн бесплатно в хорошем качестве


    Вы не можете начинать темы
    Вы не можете отвечать на сообщения
    Вы не можете редактировать свои сообщения
    Вы не можете удалять свои сообщения
    Вы не можете голосовать в опросах
    Вы не можете прикреплять файлы к сообщениям
    Вы можете скачивать файлы