Наша группа ВК в очередной раз забанена мы уходим в Телеграм, присоединяйтесь!!!

Лицензия

30

iTunes

мы

iTunes

1

1 сезон

Чернобыль

iTunes

1+1

iTunes

Закатать в асфальт

8 сезон

Игра престолов

1 сезон

Ральф против интернета

ИГРА 18+

pack

ВАЖНО

!!Акция!!

Alien_RageХит недели

RePack

Resident Evil 21
pack

RePack

Metro:Exodus

!!Акция!!

Alien_Rage

RePack

fifa19

RePack

Assassins Creed: Odyssey

RePack

NEED FOR SPEED™ PAYBACK

3 сезон

9 сезон

Бесстыжие 9 сезон

Все сериалы

все сериалы на PB.wtf

RePack

FAR CRY 5
Ребята, катастрофически не хватает 2730р. для оплаты серверов за АПРЕЛЬ (всвязи с блокировками трафик упал в 3 раза), 1-2р., выручайте.
  

Деметрий и гладиаторы / Demetrius and the Gladiators (Дэлмер Дэйвс) [1954 г., боевик, драма, история, BDRip] MVO pb.wtf

Деметрий и гладиаторы через торрент pb.wtf

Раздают: 1 [ 0 KB/s ]
Размер: 1.45 GB | Добавлен: 2 года 8 мес. назад | Торрент скачан:85 раз
Скачать  

27-08-2016 14:15 Деметрий и гладиаторы Скачать торрент  

Деметрий и гладиаторы / Demetrius and the Gladiators
Год выпуска: 1954
Страна: США
Жанр: боевик, драма, история
Продолжительность: 01:41:07
Перевод: Профессиональный (многоголосый) [20-й Век Фокс СНГ]

Режиссер: Дэлмер Дэйвс
Продюссер: Фрэнк Росс
Сценарий: Филип Данн, Ллойд С. Дуглас

Бюджет: $4 500 000
Премьера в мире: 16 июня 1954



В ролях: Виктор Мэтьюр, Сьюзен Хэйуорд, Майкл Ренни, Дебра Пейджит, Энн Бэнкрофт, Джей Робинсон, Бэрри Джонс, Уильям Маршалл (II), Ричард Иган, Эрнест Боргнайн

Описание: Своенравный римский император Калигула отправляет своих центурионов, чтобы найти багряницу — одеяние Христа при восхождении на Голгофу. Герой Виктора Матуре — бывший раб, а ныне вольноотпущенник Деметрий, неистовый приверженец христианской веры, скрывает плащаницу, за что и попадает на арену цирка в качестве гладиатора. Безумный император Калигула любил, когда на его глазах проливается кровь рабов сражающихся межу собой или с дикими хищниками. Новому гладиатору предстоит сразиться с тремя тиграми и вступить в смертельный поединок с пятеркой лучших гладиаторов Рима. Он с честью одержит победу в этих кровавых боях.

Качество: BDRip (DEMETRIUS_AND_THE_GLADIATORS_1954_BD-REMUX_HDCLUB)
Формат: AVI
Видео кодек: XviD
Аудио кодек: AC3
Видео: XviD, 1654 Кбит/с, 688x272, 23.976 кадр/с
Аудио: АС3, 6 ch, 384 Кбит/с, 48 kHz
Релиз от: Koenig
Общее
Полное имя : Demetrius.and.the.Gladiators.1954.BDRip.avi
Формат : AVI
Формат/Информация : Audio Video Interleave
Размер файла : 1,45 Гбайт
Продолжительность : 1 ч. 41 м.
Общий поток : 2048 Кбит/сек
Программа кодирования : VirtualDubMod 1.5.10.2 (build 2540/release)
Библиотека кодирования : VirtualDubMod build 2540/release

Видео
Идентификатор : 0
Формат : MPEG-4 Visual
Профиль формата : Advanced Simple@L5
Параметр BVOP формата : 1
Параметр QPel формата : Нет
Параметр GMC формата : Без точки перехода
Параметр матрицы формата : Default (MPEG)
Идентификатор кодека : XVID
Идентификатор кодека/Подсказка : XviD
Продолжительность : 1 ч. 41 м.
Битрейт : 1654 Кбит/сек
Ширина : 688 пикселей
Высота : 272 пикселя
Соотношение сторон : 2,529
Частота кадров : 23,976 (23976/1000) кадра/сек
Цветовое пространство : YUV
Субдискретизация насыщенности : 4:2:0
Битовая глубина : 8 бит
Тип развёртки : Прогрессивная
Метод сжатия : С потерями
Бит/(Пиксели*Кадры) : 0.369
Размер потока : 1,17 Гбайт (81%)
Библиотека кодирования : XviD 1.2.0.dev47 (UTC 2006-11-01)

Аудио
Идентификатор : 1
Формат : AC-3
Формат/Информация : Audio Coding 3
Расширение режима : CM (complete main)
Параметр Endianness формата : Big
Идентификатор кодека : 2000
Продолжительность : 1 ч. 41 м.
Вид битрейта : Постоянный
Битрейт : 384 Кбит/сек
Каналы : 6 каналов
Расположение каналов : Front: L C R, Side: L R, LFE
Частота : 48,0 КГц
Частота кадров : 31,250 кадров/сек (1536 spf)
Метод сжатия : С потерями
Размер потока : 278 Мбайт (19%)
Выравнивание : Разделение по промежуткам
Продолжительность промежутка : 42 мс. (1,00 видеокадр)
Время предзагрузки промежутка : 500 мс.

pb.wtf



Скачать Деметрий и гладиаторы через торрент http://pic1.kartinco.top/images/10/d3prl.jpg Скачать фильм Деметрий и гладиаторы через торрент бесплантно в хорошем качестве Описание: Своенравный римский император Калигула отправляет своих центурионов, чтобы найти багряницу — одеяние Христа при восхождении на ... 10 10 1
Торрент: Зарегистрирован [2016-08-27 14:15] · скачан: 85 раз
Статус: √ проверено
Размер: 1.45 GB
Как cкачать? Как скачать Деметрий и гладиаторы через торрент | qTorrent


>> Регистрируемся здесь <<






Отзывы и комментарии о схеме читаем и пишем здесь: ---> Отзывы и комментарии о схеме

Новые благодарочки в телеграм довольных пользователей:
скриншот   скриншот   скриншот   скриншот   скриншот

27-08-2016 20:07 Деметрий и гладиаторы Скачать торрент  

Фильм раритет)pb.wtf



    Дорогой пользователь! Огромная просьба, поблагодарите релизера, оцените раздачу и оставьте свои комментарий, если Вы скачали Деметрий и гладиаторы через торрент бесплатно! Внесите свою лепту в развитие PiratBit!
    Комментировать посты могут только пользователи прошедшие не сложную регистрацию
    Показать сообщения:    

    Деметрий и гладиаторы через торрент
    Скачать бесплатно Деметрий и гладиаторы
    Деметрий и гладиаторы скачать торрент
    Деметрий и гладиаторы смотреть онлайн
    Cкачать фильм Деметрий и гладиаторы бесплатно
    Деметрий и гладиаторы скачать торрент в хорошем качестве
    Деметрий и гладиаторы смотреть онлайн бесплатно в хорошем качестве


    Вы не можете начинать темы
    Вы не можете отвечать на сообщения
    Вы не можете редактировать свои сообщения
    Вы не можете удалять свои сообщения
    Вы не можете голосовать в опросах
    Вы не можете прикреплять файлы к сообщениям
    Вы можете скачивать файлы