2 сезон

iTunes

1 сезон

1

iTunes

iTunes

iTunes

1 сезон

RePack

30

ИГРА 18+

pack

ВАЖНО

!!Акция!!

Alien_RageХит недели

RePack

MK11
pack

Забери бонус

RePack

jed

!!Акция!!

Alien_Rage

RePack

fifa19

RePack

Assassins Creed: Odyssey

RePack

NEED FOR SPEED™ PAYBACK

4 сезон

9 сезон

Бесстыжие 9 сезон

Все сериалы

все сериалы на PB.wtf

RePack

FAR CRY 5
  

Топ-модель / The Model (Мадс Маттисен ) [2016, мелодрама, BDRip 1080p, MVO] pb.wtf

Топ-модель через торрент pb.wtf

Размер: 9.86 GB | Добавлен: 4 года 2 мес. назад | Торрент скачан:23 раза
Скачать  

27-08-2016 18:15 Топ-модель Скачать торрент  

Топ-модель / The Model

Год выпуска: 2016
Страна: Дания
Жанр: мелодрама

Продолжительность: 01:48:02
Перевод: Профессиональный (многоголосый, закадровый)
Режиссер: Мадс Маттисен
В ролях: Мария Палм (Emma), Эд Скрейн (Shane White), Ивонник Мюллер (André), Кристиан Абарт (The Newsagent), Доминик Оллбёрн (Sebastien), Вёрджил Брэмли (Marcel), Алексия Шико (l'amie d'Olivia), Тьерри Анкиссе (Bernard), Марко Ильсё (Frederik), Леонардо Лакария (Leonardo), Элиз Лиссаге (Elise), Мехди Сенусси (Man on motorbike)
Описание:
Когда начинающая модель из глубинки Эмма получает приглашение в одно из ведущих модных агентств, она, ни секунды не сомневаясь, отправляется навстречу своей мечте в Париж. На одной из фотосессий она встречает успешного и привлекательного фотографа Шейна Уайта, в которого влюбляется. Однако мир моды диктует свои условия, и то, что поначалу складывалось для нее как сказка, начинает постепенно перерастать в опасную одержимость и настоящий ночной кошмар.
Рейтинг:

Качество: BDRip 1080p
Формат: MKV
Видео: AVC, 1920x1036 (1.85:1), 9387 kbps, 24 fps, 0,197 bpp
Аудио №1: русский / AC3 / 5.1 / 48 kHz / 640 kbps /
Аудио №2: русский / DTS / 5.1 / 48 kHz / 1536 kbps / 16 bit
Аудио №3: английский / DTS / 5.1 / 48 kHz / 1509 kbps / 16 bit
Навигация по главам: есть

General
Unique ID The.Model.2016.MVO.BDRip.1080p.mkv
Format : Matroska
Format version : Version 4 / Version 2
File size : 9.86 GiB
Duration : 1 h 48 min
Overall bit rate : 13.1 Mb/s
Movie name : The.Model.2016.MVO.BDRip.1080p.ExKinoRay
Encoded date : UTC 2016-08-17 18:56:32
Writing application : mkvmerge v8.3.0 ('Over the Horizon') 64bit
Writing library : libebml v1.3.1 + libmatroska v1.4.2

Video
ID : 1
Format : AVC
Format/Info : Advanced Video Codec
Format profile : High@L4.1
Format settings, CABAC : Yes
Format settings, ReFrames : 4 frames
Codec ID : V_MPEG4/ISO/AVC
Duration : 1 h 48 min
Bit rate : 9 387 kb/s
Width : 1 920 pixels
Height : 1 036 pixels
Display aspect ratio : 1.85:1
Frame rate mode : Constant
Frame rate : 24.000 FPS
Color space : YUV
Chroma subsampling : 4:2:0
Bit depth : 8 bits
Scan type : Progressive
Bits/(Pixel*Frame) : 0.197
Stream size : 7.08 GiB (72%)
Writing library : x264 core 146 r2538 121396c
Encoding settings : cabac=1 / ref=4 / deblock=1:-3:-3 / analyse=0x3:0x133 / me=umh / subme=10 / psy=1 / psy_rd=1.10:0.00 / mixed_ref=1 / me_range=32 / chroma_me=1 / trellis=2 / 8x8dct=1 / cqm=0 / deadzone=21,11 / fast_pskip=0 / chroma_qp_offset=-2 / threads=6 / lookahead_threads=2 / sliced_threads=0 / nr=0 / decimate=0 / interlaced=0 / bluray_compat=0 / constrained_intra=0 / bframes=8 / b_pyramid=2 / b_adapt=2 / b_bias=0 / direct=3 / weightb=1 / open_gop=0 / weightp=2 / keyint=240 / keyint_min=24 / scenecut=40 / intra_refresh=0 / rc_lookahead=60 / rc=2pass / mbtree=1 / bitrate=9387 / ratetol=1.0 / qcomp=0.60 / qpmin=0 / qpmax=69 / qpstep=4 / cplxblur=20.0 / qblur=0.5 / vbv_maxrate=50000 / vbv_bufsize=62500 / nal_hrd=none / filler=0 / ip_ratio=1.40 / aq=3:0.80
Language : English
Default : Yes
Forced : No

Audio #1
ID : 2
Format : AC-3
Format/Info : Audio Coding 3
Mode extension : CM (complete main)
Format settings, Endianness : Big
Codec ID : A_AC3
Duration : 1 h 48 min
Bit rate mode : Constant
Bit rate : 640 kb/s
Channel(s) : 6 channels
Channel positions : Front: L C R, Side: L R, LFE
Sampling rate : 48.0 kHz
Frame rate : 31.250 FPS (1536 spf)
Compression mode : Lossy
Stream size : 495 MiB (5%)
Language : Russian
Default : Yes
Forced : No

Audio #2
ID : 3
Format : DTS
Format/Info : Digital Theater Systems
Mode : 16
Format settings, Endianness : Big
Codec ID : A_DTS
Duration : 1 h 48 min
Bit rate mode : Constant
Bit rate : 1 536 kb/s
Channel(s) : 6 channels
Channel positions : Front: L C R, Side: L R, LFE
Sampling rate : 48.0 kHz
Frame rate : 93.750 FPS (512 spf)
Bit depth : 16 bits
Compression mode : Lossy
Stream size : 1.16 GiB (12%)
Language : Russian
Default : No
Forced : No

Audio #3
ID : 4
Format : DTS
Format/Info : Digital Theater Systems
Mode : 16
Format settings, Endianness : Big
Codec ID : A_DTS
Duration : 1 h 48 min
Bit rate mode : Constant
Bit rate : 1 509 kb/s
Channel(s) : 6 channels
Channel positions : Front: L C R, Side: L R, LFE
Sampling rate : 48.0 kHz
Frame rate : 93.750 FPS (512 spf)
Bit depth : 16 bits
Compression mode : Lossy
Stream size : 1.14 GiB (12%)
Language : English
Default : No
Forced : No

Menu
00:00:00.000 : en:00:00:00.000
00:14:13.625 : en:00:14:13.625
00:28:03.792 : en:00:28:03.792
00:39:34.833 : en:00:39:34.833
00:54:22.250 : en:00:54:22.250
01:07:10.875 : en:01:07:10.875
01:21:59.750 : en:01:21:59.750
01:32:51.542 : en:01:32:51.542
Скриншоты:
pb.wtf



Скачать Топ-модель через торрент http://i6.imageban.ru/out/2016/08/27/56b271c57d695cb617acd4607e337b0b.jpg Скачать фильм Топ-модель через торрент бесплантно в хорошем качестве Описание: Когда начинающая модель из глубинки Эмма получает приглашение в одно из ведущих модных агентств, она, ни секунды не сомневаясь, ... 10 10 2
Торрент: Зарегистрирован [2016-08-27 18:15] · скачан: 23 раз
Статус: T временная
Размер: 9.86 GB
Как cкачать? Как скачать Топ-модель через торрент | qTorrent

% Раздел Тема Автор DL S | L
T Фильмы [HD 720p, 1080p] (Хороший звук DUB, MVO) [ 6.23 GB ] Топ-модель / The Model [2016 BDRip 720p MVO smaster Скачать
1 | 0
Фильмы 2016 [DVDrip, WEB-DLRip, HDrip] (DUB, MVO) [ 1.41 GB ] Топ-модель / The Model [2016 BDRip] [Официальный звук] Twi7ter Скачать
1 | 0
T Фильмы без перевода [ 4.36 GB ] Топ-модель / The Model [2016 BDRip 720p] smaster Скачать
1 | 0
Фильмы без перевода [ 7.64 GB ] Топ-модель / The Model [2016 BDRip 1080p Перевод отсутствует Оригинал] smaster Скачать
1 | 0
T Релизы по Парсеру [Игры, Сериалы и Фильмы и другое...] [ 1.45 GB ] Топ-модель / The Model WEB-DLRip Ворон Скачать
1 | 0

28-11-2019 20:33  

Отключить всю рекламу на сайте

28-08-2016 03:18 Топ-модель Скачать торрент  

Фильм как?pb.wtf



    Дорогой пользователь! Огромная просьба, поблагодарите релизера, оцените раздачу и оставьте свои комментарий, если Вы скачали Топ-модель через торрент бесплатно! Внесите свою лепту в развитие PiratBit!
    Комментировать посты могут только пользователи прошедшие не сложную регистрацию
    Показать сообщения:    

    Топ-модель через торрент
    Скачать бесплатно Топ-модель
    Топ-модель скачать торрент
    Топ-модель смотреть онлайн
    Cкачать фильм Топ-модель бесплатно
    Топ-модель скачать торрент в хорошем качестве
    Топ-модель смотреть онлайн бесплатно в хорошем качестве


    Вы не можете начинать темы
    Вы не можете отвечать на сообщения
    Вы не можете редактировать свои сообщения
    Вы не можете удалять свои сообщения
    Вы не можете голосовать в опросах
    Вы не можете прикреплять файлы к сообщениям
    Вы можете скачивать файлы