Ссылка на приватное зеркало нашего сайта всего за 1$. Внимание количество ограничено!!!

2 сезон

iTunes

1 сезон

1

iTunes

iTunes

iTunes

1 сезон

RePack

30

ИГРА 18+

pack

ВАЖНО

!!Акция!!

Alien_RageХит недели

RePack

MK11
pack

Забери бонус

RePack

jed

!!Акция!!

Alien_Rage

RePack

fifa19

RePack

Assassins Creed: Odyssey

RePack

NEED FOR SPEED™ PAYBACK

4 сезон

9 сезон

Бесстыжие 9 сезон

Все сериалы

все сериалы на PB.wtf

RePack

FAR CRY 5
  

Топ-модель / The Model (Мадс Маттисен ) [2016, мелодрама, BDRip 720p, MVO pb.wtf

Топ-модель через торрент pb.wtf

Размер: 6.23 GB | Добавлен: 4 года 1 мес. назад | Торрент скачан:51 раз
Скачать  

27-08-2016 18:23 Топ-модель Скачать торрент  

Топ-модель / The Model

Год выпуска: 2016
Страна: Дания
Жанр: мелодрама

Продолжительность: 01:48:02
Перевод: Профессиональный (многоголосый, закадровый)
Режиссер: Мадс Маттисен
В ролях: Мария Палм (Emma), Эд Скрейн (Shane White), Ивонник Мюллер (André), Кристиан Абарт (The Newsagent), Доминик Оллбёрн (Sebastien), Вёрджил Брэмли (Marcel), Алексия Шико (l'amie d'Olivia), Тьерри Анкиссе (Bernard), Марко Ильсё (Frederik), Леонардо Лакария (Leonardo), Элиз Лиссаге (Elise), Мехди Сенусси (Man on motorbike)
Описание:
Когда начинающая модель из глубинки Эмма получает приглашение в одно из ведущих модных агентств, она, ни секунды не сомневаясь, отправляется навстречу своей мечте в Париж. На одной из фотосессий она встречает успешного и привлекательного фотографа Шейна Уайта, в которого влюбляется. Однако мир моды диктует свои условия, и то, что поначалу складывалось для нее как сказка, начинает постепенно перерастать в опасную одержимость и настоящий ночной кошмар.
Рейтинг:

Качество: BDRip 720p
Формат: MKV
Видео: AVC, 1280x692 (1.85:1), 6354 kbps, 24 fps, 0,299 bpp
Аудио №1: русский / AC3 / 2.0 / 48 kHz / 384 kbps /
Аудио №2: английский / DTS / 5.1 / 48 kHz / 1509 kbps / 16 bit
Навигация по главам: есть

General
Unique ID Топ-модель.720p.mkv
Format : Matroska
Format version : Version 4 / Version 2
File size : 6.23 GiB
Duration : 1 h 48 min
Overall bit rate : 8 250 kb/s
Movie name : Топ-модель. (Tonik)
Encoded date : UTC 2016-08-17 03:45:11
Writing application : mkvmerge v7.1.0 ('Good Love') 64bit built on Jul 27 2014 13:06:55
Writing library : libebml v1.3.0 + libmatroska v1.4.1

Video
ID : 1
Format : AVC
Format/Info : Advanced Video Codec
Format profile : High@L4.1
Format settings, CABAC : Yes
Format settings, ReFrames : 9 frames
Codec ID : V_MPEG4/ISO/AVC
Duration : 1 h 48 min
Bit rate : 6 354 kb/s
Width : 1 280 pixels
Height : 692 pixels
Display aspect ratio : 1.85:1
Frame rate mode : Constant
Frame rate : 24.000 FPS
Color space : YUV
Chroma subsampling : 4:2:0
Bit depth : 8 bits
Scan type : Progressive
Bits/(Pixel*Frame) : 0.299
Stream size : 4.80 GiB (77%)
Title : Tonik
Writing library : x264 core 148 r2705 3f5ed56
Encoding settings : cabac=1 / ref=9 / deblock=1:-3:-3 / analyse=0x3:0x133 / me=umh / subme=11 / psy=1 / psy_rd=1.00:0.00 / mixed_ref=1 / me_range=32 / chroma_me=1 / trellis=2 / 8x8dct=1 / cqm=0 / deadzone=21,11 / fast_pskip=0 / chroma_qp_offset=-2 / threads=12 / lookahead_threads=3 / sliced_threads=0 / nr=0 / decimate=0 / interlaced=0 / bluray_compat=0 / constrained_intra=0 / bframes=11 / b_pyramid=2 / b_adapt=2 / b_bias=0 / direct=1 / weightb=1 / open_gop=0 / weightp=2 / keyint=250 / keyint_min=24 / scenecut=40 / intra_refresh=0 / rc=crf / mbtree=0 / crf=16.0 / qcomp=0.60 / qpmin=0 / qpmax=69 / qpstep=4 / ip_ratio=1.40 / pb_ratio=1.30 / aq=1:0.80
Language : English
Default : Yes
Forced : No

Audio #1
ID : 2
Format : AC-3
Format/Info : Audio Coding 3
Mode extension : CM (complete main)
Format settings, Endianness : Big
Codec ID : A_AC3
Duration : 1 h 48 min
Bit rate mode : Constant
Bit rate : 384 kb/s
Channel(s) : 2 channels
Channel positions : Front: L R
Sampling rate : 48.0 kHz
Frame rate : 31.250 FPS (1536 spf)
Compression mode : Lossy
Stream size : 297 MiB (5%)
Language : Russian
Default : Yes
Forced : No

Audio #2
ID : 3
Format : DTS
Format/Info : Digital Theater Systems
Mode : 16
Format settings, Endianness : Big
Codec ID : A_DTS
Duration : 1 h 48 min
Bit rate mode : Constant
Bit rate : 1 509 kb/s
Channel(s) : 6 channels
Channel positions : Front: L C R, Side: L R, LFE
Sampling rate : 48.0 kHz
Frame rate : 93.750 FPS (512 spf)
Bit depth : 16 bits
Compression mode : Lossy
Stream size : 1.14 GiB (18%)
Language : English
Default : No
Forced : No

Menu
00:00:00.000 : :Chapter 01
00:14:13.625 : :Chapter 02
00:28:03.791 : :Chapter 03
00:39:34.833 : :Chapter 04
00:54:22.250 : :Chapter 05
01:07:10.875 : :Chapter 06
01:21:59.750 : :Chapter 07
01:32:51.541 : :Chapter 08
01:48:01.291 : :Chapter 09
Скриншоты:
pb.wtf



Скачать Топ-модель через торрент http://i6.imageban.ru/out/2016/08/27/b4f800e7e9eda32828cc984e74f80e14.jpg Скачать фильм Топ-модель через торрент бесплантно в хорошем качестве Описание: Когда начинающая модель из глубинки Эмма получает приглашение в одно из ведущих модных агентств, она, ни секунды не сомневаясь, ... 8.7 10 6
Торрент: Зарегистрирован [2016-08-27 18:23] · скачан: 51 раз
Статус: T временная
Размер: 6.23 GB
Как cкачать? Как скачать Топ-модель через торрент | qTorrent

% Раздел Тема Автор DL S | L
T Фильмы [HD 720p, 1080p] (Хороший звук DUB, MVO) [ 9.86 GB ] Топ-модель / The Model [2016 BDRip 1080p MVO] smaster Скачать
1 | 0

28-11-2019 20:33  

Отключить всю рекламу на сайте

28-08-2016 03:19 Топ-модель Скачать торрент  

Смотреть стоит?pb.wtf



    Дорогой пользователь! Огромная просьба, поблагодарите релизера, оцените раздачу и оставьте свои комментарий, если Вы скачали Топ-модель через торрент бесплатно! Внесите свою лепту в развитие PiratBit!
    Комментировать посты могут только пользователи прошедшие не сложную регистрацию
    Показать сообщения:    

    Топ-модель через торрент
    Скачать бесплатно Топ-модель
    Топ-модель скачать торрент
    Топ-модель смотреть онлайн
    Cкачать фильм Топ-модель бесплатно
    Топ-модель скачать торрент в хорошем качестве
    Топ-модель смотреть онлайн бесплатно в хорошем качестве


    Вы не можете начинать темы
    Вы не можете отвечать на сообщения
    Вы не можете редактировать свои сообщения
    Вы не можете удалять свои сообщения
    Вы не можете голосовать в опросах
    Вы не можете прикреплять файлы к сообщениям
    Вы можете скачивать файлы