MEGA NEWS Получи личный уникальный адрес сайта и защити себя от блокировок. Внимание количество ограничено!!!

iTunes

1+1

iTunes

мы

iTunes

1

iTunes

Чернобыль

iTunes

Ральф против интернета

Лицензия

ПШазам

Лицензия

Игра престолов

Лицензия

30
pack

ВАЖНО

!!Акция!!

Alien_RageХит недели

RePack

Resident Evil 21

ИГРА 18+

pack

RePack

Metro:Exodus

!!Акция!!

Alien_Rage

RePack

fifa19

RePack

Assassins Creed: Odyssey

RePack

NEED FOR SPEED™ PAYBACK

3 сезон

9 сезон

Бесстыжие 9 сезон

Все сериалы

все сериалы на PB.wtf

RePack

FAR CRY 5
Ребята, катастрофически не хватает 1900р. для оплаты серверов за АВГУСТ (всвязи с блокировками трафик упал в 3 раза), 1-2р., выручайте.
  

Евангелие от Матфея / Il Vangelo secondo Matteo (Пьер Паоло Пазолини) [1964 г., драма, биография, история, BDRip] MVO, DVO pb.wtf

Евангелие от Матфея через торрент pb.wtf

Размер: 2.18 GB | Добавлен: 3 года 1 мес. назад | Торрент скачан:3 раза
Скачать  

28-08-2016 09:15 Евангелие от Матфея Скачать торрент  

Евангелие от Матфея / Il Vangelo secondo Matteo
Год выпуска: 1964
Страна: Франция, Италия
Жанр: драма, биография, история
Продолжительность: 02:17:09
Перевод: Профессиональный многоголосый, профессиональный двухголосый

Режиссер: Пьер Паоло Пазолини
Продюссер: Альфредо Бини
Сценарий: Пьер Паоло Пазолини

Премьера в мире: 4 сентября 1964



В ролях: Энрике Иразоги, Маргерита Карузо, Суссана Пазолини, Марчелло Моранте, Марио Сократе, Сеттимио Ди Порто, Альфонсо Гатто, Луиджи Барбини, Джакомо Моранте, Джорджо Агамбен, Гуидо Черретани, Розарио Мигале, Ферруччо Нуццо, Марчелло Гальдини, Элио Спациани, Энцо Сичилиано, Отелло Сестили, Родольфо Уилкок, Алессандро Клеричи, Америго Бевилакуа, Франческо Леонетти, Франка Купане, Паола Тедеско, Россана Ди Рокко, Ренато Терра, Элизео Боски, Наталия Гинзбург, Энрико Мария Салерно

Описание: В полудокументальной манере с использованием непрофессиональных актеров в черно-белом изображении рассказывается о жизни Иисуса Христа. Сценарий написан по Евангелию от Матфея.
Иисус в изображении Пазолини кажется гневным, он как бы торопится, быстро и отчетливо выговаривая канонический текст, словно осознавая, что времени у него мало.

Качество: BDRip (Evangeli ot Matffey_remux 1080p)
Формат: AVI
Видео кодек: XviD
Аудио кодек: AC3
Видео: XviD, 1877 Кбит/с, 704x384, 24 кадр/с
Аудио#1: АС3, 2 ch, 192 Кбит/с, 48 kHz | Профессиональный двухголосый (Кармен видео)
Аудио#2: АС3, 2 ch, 192 Кбит/с, 48 kHz | Профессиональный многоголосый (ДВД Магия)
Релиз от: Koenig
Общее
Полное имя : Il.Vangelo.Secondo.Matteo.1964.BDRip.avi
Формат : AVI
Формат/Информация : Audio Video Interleave
Профиль формата : OpenDML
Размер файла : 2,18 Гбайт
Продолжительность : 2 ч. 17 м.
Общий поток : 2279 Кбит/сек
Программа кодирования : VirtualDubMod 1.5.10.2 (build 2540/release)
Библиотека кодирования : VirtualDubMod build 2540/release

Видео
Идентификатор : 0
Формат : MPEG-4 Visual
Профиль формата : Advanced Simple@L5
Параметр BVOP формата : 1
Параметр QPel формата : Нет
Параметр GMC формата : Без точки перехода
Параметр матрицы формата : Default (MPEG)
Идентификатор кодека : XVID
Идентификатор кодека/Подсказка : XviD
Продолжительность : 2 ч. 17 м.
Битрейт : 1877 Кбит/сек
Ширина : 704 пикселя
Высота : 384 пикселя
Соотношение сторон : 1,85:1
Частота кадров : 24,000 кадра/сек
Цветовое пространство : YUV
Субдискретизация насыщенности : 4:2:0
Битовая глубина : 8 бит
Тип развёртки : Прогрессивная
Метод сжатия : С потерями
Бит/(Пиксели*Кадры) : 0.289
Размер потока : 1,80 Гбайт (82%)
Библиотека кодирования : XviD 1.2.0.dev47 (UTC 2006-11-01)

Аудио #1
Идентификатор : 1
Формат : AC-3
Формат/Информация : Audio Coding 3
Расширение режима : CM (complete main)
Параметр Endianness формата : Big
Идентификатор кодека : 2000
Продолжительность : 2 ч. 17 м.
Вид битрейта : Постоянный
Битрейт : 192 Кбит/сек
Каналы : 2 канала
Расположение каналов : Front: L R
Частота : 48,0 КГц
Частота кадров : 31,250 кадров/сек (1536 spf)
Метод сжатия : С потерями
Размер потока : 188 Мбайт (8%)
Выравнивание : Разделение по промежуткам
Продолжительность промежутка : 42 мс. (1,00 видеокадр)
Время предзагрузки промежутка : 500 мс.

Аудио #2
Идентификатор : 2
Формат : AC-3
Формат/Информация : Audio Coding 3
Расширение режима : CM (complete main)
Параметр Endianness формата : Big
Идентификатор кодека : 2000
Продолжительность : 2 ч. 17 м.
Вид битрейта : Постоянный
Битрейт : 192 Кбит/сек
Каналы : 2 канала
Расположение каналов : Front: L R
Частота : 48,0 КГц
Частота кадров : 31,250 кадров/сек (1536 spf)
Метод сжатия : С потерями
Размер потока : 188 Мбайт (8%)
Выравнивание : Разделение по промежуткам
Продолжительность промежутка : 42 мс. (1,00 видеокадр)
Время предзагрузки промежутка : 500 мс.

Евангелие от Матфея скачать торрент

pb.wtf



Скачать Евангелие от Матфея через торрент http://pic1.kartinco.top/images/10/5mkse.jpg Скачать фильм Евангелие от Матфея через торрент бесплантно в хорошем качестве Описание: В полудокументальной манере с использованием непрофессиональных актеров в черно-белом изображении рассказывается о жизни Иисуса ... 10 10 1
Info! Золотая раздача, скачанное не засчитывается.
Торрент: Зарегистрирован [2016-08-28 09:15] · скачан: 3 раз
Статус: √ проверено
Размер: 2.18 GB
Как cкачать? Как скачать Евангелие от Матфея через торрент | qTorrent


>> Регистрируемся здесь <<






Отзывы и комментарии о схеме читаем и пишем здесь: ---> Отзывы и комментарии о схеме

Новые благодарочки в телеграм довольных пользователей:
скриншот   скриншот   скриншот   скриншот   скриншот

28-08-2016 18:21 Евангелие от Матфея Скачать торрент  

Как фильм?pb.wtf



    Дорогой пользователь! Огромная просьба, поблагодарите релизера, оцените раздачу и оставьте свои комментарий, если Вы скачали Евангелие от Матфея через торрент бесплатно! Внесите свою лепту в развитие PiratBit!
    Комментировать посты могут только пользователи прошедшие не сложную регистрацию
    Показать сообщения:    

    Евангелие от Матфея через торрент
    Скачать бесплатно Евангелие от Матфея
    Евангелие от Матфея скачать торрент
    Евангелие от Матфея смотреть онлайн
    Cкачать фильм Евангелие от Матфея бесплатно
    Евангелие от Матфея скачать торрент в хорошем качестве
    Евангелие от Матфея смотреть онлайн бесплатно в хорошем качестве


    Вы не можете начинать темы
    Вы не можете отвечать на сообщения
    Вы не можете редактировать свои сообщения
    Вы не можете удалять свои сообщения
    Вы не можете голосовать в опросах
    Вы не можете прикреплять файлы к сообщениям
    Вы можете скачивать файлы