новый адрес
Ссылка на приватное зеркало всего за 1$. Внимание количество ограничено!!!

iTunes

1+1

iTunes

мы

iTunes

1

iTunes

Чернобыль

iTunes

Ральф против интернета

Лицензия

ПШазам

Лицензия

Оно 2

Лицензия

30
pack

Вам бонус

ВАЖНО

!!Акция!!

Alien_RageХит недели

RePack

Resident Evil 21

ИГРА 18+

pack

RePack

jed

!!Акция!!

Alien_Rage

RePack

fifa19

RePack

Assassins Creed: Odyssey

RePack

NEED FOR SPEED™ PAYBACK

3 сезон

9 сезон

Бесстыжие 9 сезон

Все сериалы

все сериалы на PB.wtf

RePack

FAR CRY 5
Ребята, катастрофически не хватает 1900р. для оплаты серверов за Октябрь (всвязи с блокировками трафик упал в 3 раза), 1-2р., выручайте.
  

Тихий приют / Silent Retreat (Эйс Джордан ) [2016, ужасы, триллер, детектив, HDRip, Любительский одноголосый [VO] pb.wtf

Тихий приют через торрент pb.wtf

Размер: 1.45 GB | Добавлен: 3 года 2 мес. назад | Торрент скачан:102 раза
Скачать  

28-08-2016 18:45 Тихий приют Скачать торрент  

Тихий приют / Silent Retreat

Год выпуска: 2016
Страна: США
Жанр: ужасы, триллер, детектив
Продолжительность: 01:31:26
Перевод: Любительский одноголосый [Xixidok]
Язык субтитров: Английский
Вид субтитров: Отдельным файлом
Режиссер: Эйс Джордан
В ролях: Донни Боас (Zacry Stabard), Ребекка Питкин (Meigan De Foresi), Дэн Ди Хулио (Dale Re), Эли Билднер (Tedi Calcan), Девон Огден (Lira Tuls), Эйдан Флинн (Ned), Триста Робинсон (Rita Pulis), Мелани Авалон (ICU Nurse), Лэндон Эшворт (Joel Sau), Джон Керри (Dr. Rexif), Сиркус-Шалевски (Mr. Warren), Лиза Гудман (Nurse)
Описание:
Шесть сотрудников медиа-компании идут на отдых в изолированный домик в лесу. Когда один из членов пропадает без вести, они обнаруживают, что домик ранее был частной психбольницей, которая была закрыта после обвинений в неправомерных действиях. Один за другим, они становятся жертвами темных тайн, похороненных в домике.
Рейтинг:

http://www.imdb.com/title/tt3563892/
Качество: HDRip
Формат: AVI
Видео: xvid, 720x384 (1.85:1), 2066 kbps, 23,976 fps, 0,312 bpp
Аудио: MP3 / 2.0 / 44 kHz / 192 kbps /

Код:

General
Complete name                            : E:\Silent Retreat (2016) HDRip\Silent Retreat.2016.HDRip.avi
Format                                   : AVI
Format/Info                              : Audio Video Interleave
Format profile                           : OpenDML
File size                                : 1.45 GiB
Duration                                 : 1 h 31 min
Overall bit rate                         : 2 273 kb/s
Writing application                      : XviD4PSP 6.0 / 54.29.105

Video
ID                                       : 0
Format                                   : xvid
Codec ID                                 : xvid
Duration                                 : 1 h 31 min
Bit rate                                 : 2 067 kb/s
Width                                    : 720 pixels
Height                                   : 384 pixels
Display aspect ratio                     : 1.85:1
Frame rate                               : 23.976 FPS
Scan type                                : Progressive
Bits/(Pixel*Frame)                       : 0.312
Stream size                              : 1.32 GiB (91%)

Audio
ID                                       : 1
Format                                   : MPEG Audio
Format version                           : Version 1
Format profile                           : Layer 3
Codec ID                                 : 55
Codec ID/Hint                            : MP3
Duration                                 : 1 h 31 min
Bit rate mode                            : Constant
Bit rate                                 : 192 kb/s
Channel(s)                               : 2 channels
Sampling rate                            : 44.1 kHz
Compression mode                         : Lossy
Stream size                              : 126 MiB (8%)
Alignment                                : Aligned on interleaves
Interleave, duration                     : 26  ms (0.63 video frame)



pb.wtf



Скачать Тихий приют через торрент http://i77.fastpic.ru/big/2016/0828/5f/c032adbcc6ce44a93138ce199a1f975f.jpg Скачать фильм Тихий приют через торрент бесплантно в хорошем качестве Описание: Шесть сотрудников медиа-компании идут на отдых в изолированный домик в лесу. Когда один из членов пропадает без вести, они ... 10 10 4
Торрент: Зарегистрирован [2016-08-28 18:45] · скачан: 102 раз
Статус: T временная
Размер: 1.45 GB
Как cкачать? Как скачать Тихий приют через торрент | qTorrent

% Раздел Тема Автор DL S | L
T Фильмы (мультфильмы) cо спонсором показа (Новинки AVI/MKV) [ 3.13 GB ] Тихий приют / Silent Retreat [2016 WEB-DL 720p] MVO [официальный звук] bober100 Скачать
1 | 0
T Фильмы (мультфильмы) cо спонсором показа (Новинки AVI/MKV) [ 1.37 GB ] Тихий приют / Silent Retreat [2016 WEB-DLRip] MVO [официальный звук] bober100 Скачать
1 | 0

28-08-2016 19:31 Тихий приют Скачать торрент  

опять этот ублюдок перевёл.. как же он достал!! качань даже не буду.pb.wtf



28-08-2016 20:41 Тихий приют Скачать торрент  

да...перевод этого полудурка печален..подожду другой pb.wtf



29-08-2016 05:31 Тихий приют Скачать торрент  

этот товарищ добавлял бы русские сабы и оставлял бы оригинальную дорожку я бы только спасибо сказал ему за это... ну нет голоса нормального что глотку то рвать и насиловать уши людей. За бугром многие в кинотеатрах смотрят фильмы с оригинальной озвучкой и родными сабами и ни че не жалуютсяpb.wtf



29-08-2016 05:43 Тихий приют Скачать торрент  

Как обычно шлак от хихидока)pb.wtf



31-08-2016 14:06 Тихий приют Скачать торрент  

опять эта тварь перевелаpb.wtf



    Дорогой пользователь! Огромная просьба, поблагодарите релизера, оцените раздачу и оставьте свои комментарий, если Вы скачали Тихий приют через торрент бесплатно! Внесите свою лепту в развитие PiratBit!
    Комментировать посты могут только пользователи прошедшие не сложную регистрацию
    Показать сообщения:    

    Тихий приют через торрент
    Скачать бесплатно Тихий приют
    Тихий приют скачать торрент
    Тихий приют смотреть онлайн
    Cкачать фильм Тихий приют бесплатно
    Тихий приют скачать торрент в хорошем качестве
    Тихий приют смотреть онлайн бесплатно в хорошем качестве


    Вы не можете начинать темы
    Вы не можете отвечать на сообщения
    Вы не можете редактировать свои сообщения
    Вы не можете удалять свои сообщения
    Вы не можете голосовать в опросах
    Вы не можете прикреплять файлы к сообщениям
    Вы можете скачивать файлы