Ссылка на приватное зеркало нашего сайта всего за 1$. Внимание количество ограничено!!!

2 сезон

iTunes

1 сезон

1

iTunes

iTunes

iTunes

1 сезон

RePack

30

ИГРА 18+

pack

ВАЖНО

!!Акция!!

Alien_RageХит недели

RePack

MK11
pack

Забери бонус

RePack

jed

!!Акция!!

Alien_Rage

RePack

fifa19

RePack

Assassins Creed: Odyssey

RePack

NEED FOR SPEED™ PAYBACK

4 сезон

9 сезон

Бесстыжие 9 сезон

Все сериалы

все сериалы на PB.wtf

RePack

FAR CRY 5
  

Опасный квартал / The Son of No One [2011г, боевик, триллер, криминал, BDRip 720p от _denis_100 / NNNB] DUB + 2xAVO + Original + Sub (Rus,Eng) pb.wtf

Опасный квартал через торрент pb.wtf

Размер: 5.3 GB | Добавлен: 4 года 1 мес. назад | Торрент скачан:108 раз
Скачать  

29-08-2016 06:22 Опасный квартал Скачать торрент  

Опасный квартал / The Son of No One
«Serve. Protect. Lie»



Название: Опасный квартал
Оригинальное название: The Son of No One
Год выпуска: 2011
Жанр: Боевик, триллер, криминал, экранизация
Выпущено: США, Hannibal Pictures, Millennium Films
Длительность: 01:33:46
Перевод: Дублированный, Авторский одноголосый
Субтитры: русские , английские
Режиссер: Дито Монтиель
В ролях: Ченнинг Татум, Аль Пачино, Трэйси Морган, Кэти Холмс, Рэй Лиотта, Жюльетт Бинош, Джеймс Рэнсон, Брайан Гилберт, Джейк Черри, Симона Джой Джонс, Роджер Гуэнвёр Смит, Майкл Ривера, Шон Креган, Карен Кристи-Уорд, Питер Энтони Тамбакис, Мэрлин Добрин, Декорт Снайпс, Крэйг Уолкер, Джонни Мэй, Джизелла Маренго

Описание: Главный герой — молодой полицейский, приписанный к участку в районе, где в основном проживает рабочий класс. Герой вырос в этом районе, и теперь, когда он вернулся сюда стражем закона, на поверхности оказался некий секрет, который может уничтожить как семью копа, так и его самого. Экранизация по произведению: Дито Монтиель.

Качество: BDRip 720p
Контейнер (Расширение): MKV
Видео: 1280x546, 5612 Кбит/сек, 23,976 кадр/сек, 0,335 Бит[Пиксели*Кадры]
Аудио №1: русский AC3 5.1 48 kHz 640 kbps 16 bit - Дублированный
Аудио №2: русский AC3 5.1 48 kHz 640 kbps 16 bit - Авторский одноголосый, Живов
Аудио №3: русский AC3 5.1 48 kHz 640 kbps 16 bit - Авторский одноголосый, Яроцкий
Аудио №4: английский AC3 5.1 48 kHz 640 kbps 16 bit
Навигация по главам(Чаптеры): естьАвтор рипа: Сообщество: Звуковые дорожки и субтитры отдельно:

Код:

Format                      : Matroska
Format version              : Version 2
File size                   : 5.30 GiB
Duration                    : 1h 33mn
Overall bit rate            : 8 097 Kbps
Movie name                  : The Son of No One.2011.BDRip.720p.[denis100]
Encoded date                : UTC 2016-08-29 06:02:52
Writing application         : mkvmerge v5.8.0 ('No Sleep / Pillow') built on Sep  2 2012 15:37:04
Writing library             : libebml v1.2.3 + libmatroska v1.3.0

Video
ID                          : 1
Format                      : AVC
Format/Info                 : Advanced Video Codec
Format profile              : High@L4.1
Format settings, CABAC      : Yes
Format settings, ReFrames   : 11 frames
Codec ID                    : V_MPEG4/ISO/AVC
Duration                    : 1h 33mn
Bit rate                    : 5 612 Kbps
Width                       : 1 280 pixels
Height                      : 546 pixels
Display aspect ratio        : 2.35:1
Frame rate mode             : Constant
Frame rate                  : 23.976 fps
Color space                 : YUV
Chroma subsampling          : 4:2:0
Bit depth                   : 8 bits
Scan type                   : Progressive
Bits/(Pixel*Frame)          : 0.335
Stream size                 : 3.52 GiB (66%)
Title                       : The Son of No One.2011.BDRip.720p.[denis100].NNNB
Writing library             : x264 core 148 r2705 3f5ed56
Encoding settings           : cabac=1 / ref=11 / deblock=1:-3:-3 / analyse=0x3:0x133 / me=umh / subme=11 / psy=1 / psy_rd=1.00:0.05 / mixed_ref=1 / me_range=32 / chroma_me=1 / trellis=2 / 8x8dct=1 / cqm=0 / deadzone=21,11 / fast_pskip=0 / chroma_qp_offset=-3 / threads=6 / lookahead_threads=1 / sliced_threads=0 / nr=0 / decimate=1 / interlaced=0 / bluray_compat=0 / constrained_intra=0 / bframes=10 / b_pyramid=2 / b_adapt=2 / b_bias=0 / direct=3 / weightb=1 / open_gop=0 / weightp=2 / keyint=240 / keyint_min=23 / scenecut=40 / intra_refresh=0 / rc=2pass / mbtree=0 / bitrate=5612 / ratetol=1.0 / qcomp=0.60 / qpmin=0 / qpmax=69 / qpstep=4 / cplxblur=20.0 / qblur=0.5 / ip_ratio=1.40 / pb_ratio=1.30 / aq=2:0.90
Language                    : English
Default                     : Yes
Forced                      : No

Audio #1
ID                          : 2
Format                      : AC-3
Format/Info                 : Audio Coding 3
Mode extension              : CM (complete main)
Format settings, Endianness : Big
Codec ID                    : A_AC3
Duration                    : 1h 33mn
Bit rate mode               : Constant
Bit rate                    : 640 Kbps
Channel(s)                  : 6 channels
Channel positions           : Front: L C R, Side: L R, LFE
Sampling rate               : 48.0 KHz
Compression mode            : Lossy
Stream size                 : 429 MiB (8%)
Title                       : Дублированный
Language                    : Russian
Default                     : Yes
Forced                      : No

Audio #2
ID                          : 3
Format                      : AC-3
Format/Info                 : Audio Coding 3
Mode extension              : CM (complete main)
Format settings, Endianness : Big
Codec ID                    : A_AC3
Duration                    : 1h 33mn
Bit rate mode               : Constant
Bit rate                    : 640 Kbps
Channel(s)                  : 6 channels
Channel positions           : Front: L C R, Side: L R, LFE
Sampling rate               : 48.0 KHz
Compression mode            : Lossy
Stream size                 : 429 MiB (8%)
Title                       : Авторский одноголосый, Живов
Language                    : Russian
Default                     : No
Forced                      : No

Audio #3
ID                          : 4
Format                      : AC-3
Format/Info                 : Audio Coding 3
Mode extension              : CM (complete main)
Format settings, Endianness : Big
Codec ID                    : A_AC3
Duration                    : 1h 33mn
Bit rate mode               : Constant
Bit rate                    : 640 Kbps
Channel(s)                  : 6 channels
Channel positions           : Front: L C R, Side: L R, LFE
Sampling rate               : 48.0 KHz
Compression mode            : Lossy
Stream size                 : 429 MiB (8%)
Title                       : Авторский одноголосый, Яроцкий
Language                    : Russian
Default                     : No
Forced                      : No

Audio #4
ID                          : 5
Format                      : AC-3
Format/Info                 : Audio Coding 3
Mode extension              : CM (complete main)
Format settings, Endianness : Big
Codec ID                    : A_AC3
Duration                    : 1h 33mn
Bit rate mode               : Constant
Bit rate                    : 640 Kbps
Channel(s)                  : 6 channels
Channel positions           : Front: L C R, Side: L R, LFE
Sampling rate               : 48.0 KHz
Compression mode            : Lossy
Stream size                 : 429 MiB (8%)
Language                    : English
Default                     : No
Forced                      : No

Text #1
ID                          : 6
Format                      : UTF-8
Codec ID                    : S_TEXT/UTF8
Codec ID/Info               : UTF-8 Plain Text
Language                    : Russian
Default                     : No
Forced                      : No

Text #2
ID                          : 7
Format                      : UTF-8
Codec ID                    : S_TEXT/UTF8
Codec ID/Info               : UTF-8 Plain Text
Language                    : English
Default                     : No
Forced                      : No

Menu
00:00:00.000                : en:Chapter 1
00:08:02.857                : en:Chapter 2
00:16:36.161                : en:Chapter 3
00:21:15.022                : en:Chapter 4
00:26:41.181                : en:Chapter 5
00:30:44.133                : en:Chapter 6
00:42:19.411                : en:Chapter 7
00:48:19.478                : en:Chapter 8
00:55:00.463                : en:Chapter 9
01:00:34.171                : en:Chapter 10
01:10:48.202                : en:Chapter 11
01:22:59.265                : en:Chapter 12

x264 [info]: frame I:771 Avg QP:15.56 size:194352
x264 [info]: frame P:28326 Avg QP:16.82 size:108813
x264 [info]: frame B:105807 Avg QP:18.82 size: 51292
pb.wtf



Скачать Опасный квартал через торрент http://i1.imageban.ru/out/2016/08/28/0290950e86bfc87694665531a45b2a77.png Скачать фильм Опасный квартал через торрент бесплантно в хорошем качестве Описание: Главный герой — молодой полицейский, приписанный к участку в районе, где в основном проживает рабочий класс. Герой вырос в этом ... 6.4 10 5
Info! Золотая раздача, скачанное не засчитывается.
Торрент: Зарегистрирован [2016-08-29 06:22] · скачан: 108 раз
Статус: √ проверено
Размер: 5.3 GB
Как cкачать? Как скачать Опасный квартал через торрент | qTorrent

% Раздел Тема Автор DL S | L
Фильмы [HD 720p, 1080p] (Хороший звук DUB, MVO) [ 9.82 GB ] Опасный квартал / The Son of No One [2011г BDRip 1080p от _denis_100 / NNNB] DUB + 2xAVO + Original + Sub _denis_100 Скачать
1 | 0

28-11-2019 20:33  

Отключить всю рекламу на сайте

    Дорогой пользователь! Огромная просьба, поблагодарите релизера, оцените раздачу и оставьте свои комментарий, если Вы скачали Опасный квартал через торрент бесплатно! Внесите свою лепту в развитие PiratBit!
    Комментировать посты могут только пользователи прошедшие не сложную регистрацию
    Показать сообщения:    

    Опасный квартал через торрент
    Скачать бесплатно Опасный квартал
    Опасный квартал скачать торрент
    Опасный квартал смотреть онлайн
    Cкачать фильм Опасный квартал бесплатно
    Опасный квартал скачать торрент в хорошем качестве
    Опасный квартал смотреть онлайн бесплатно в хорошем качестве


    Вы не можете начинать темы
    Вы не можете отвечать на сообщения
    Вы не можете редактировать свои сообщения
    Вы не можете удалять свои сообщения
    Вы не можете голосовать в опросах
    Вы не можете прикреплять файлы к сообщениям
    Вы можете скачивать файлы