1 сезон

3 сезон

iTunes

1

iTunes

MVO

iTunes

13

1 сезон

RePack

30

Deluxe

pack

Лицензия

ВАЖНО

ИГРА 18+

pack

RePack

MK11

RePack

jed

RePack

fifa19

RePack

RDR2

RePack

NEED FOR SPEED™ PAYBACK

4 сезон

9 сезон

Бесстыжие 9 сезон

Все сериалы

все сериалы на PB.wtf

RePack

FAR CRY 5

Anonymous, добрый день, мы катастрофически не успеваем собрать деньги на оплату серверов, помогите нам пожалуйста 5,10,15р., для нас важна любая помощь . В качестве благодарности мы отключим Вам всю рекламу на сайте (укажите свой ник в строку Ваше имя)!

×
  
Magnet ссылка

Иллюзия обмана 2 / Now You See Me 2 (Джон М. Чу) [2016, боевик, триллер, комедия, BDRip-AVC, Дубляж - [Лицензия] / US Transfer] R.G.Resident pb.wtf

Иллюзия обмана 2 через торрент pb.wtf

Размер: 3.27 GB | Добавлен: 4 года 10 мес. назад | Торрент скачан:757 раз
Скачать  

29-08-2016 06:50 Иллюзия обмана 2 Скачать торрент  

Иллюзия обмана 2 / Now You See Me 2
««Вы еще ничего не видели»»

Год выпуска: 2016
Страна: США, Китай, Великобритания, Канада
Жанр: боевик, триллер, комедия, криминал, детектив, приключения
Продолжительность: 02:09:39
Перевод: Дубляж - [Лицензия]
Субтитры: английские (Full), английские (SDH)
Режиссер: Джон М. Чу
В ролях:

Джесси Айзенберг (J. Daniel Atlas), Марк Руффало (Dylan Rhodes), Вуди Харрельсон (Merritt McKinney), Дэйв Франко (Jack Wilder), Дэниэл Рэдклифф (Walter Mabry), Лиззи Каплан (Lula), Джей Чоу (Li), Санаа Лэтэн (Deputy Director Natalie Austin), Майкл Кейн (Arthur Tressler), Морган Фриман (Thaddeus Bradley), Дэвид Уоршофски (Agent Cowan), Тсаи Чин (Bu Bu)
Описание:
«Четыре всадника», команда лучших иллюзионистов мира, снова в сборе! Их «магия» стала еще совершеннее, а враги - опаснее. На сей раз им предстоит спасти свою репутацию и вывести на чистую воду жестокого техномагната...
Мировая премьера: 2 июня 2016

MPAA: PG-13 - Детям до 13 лет просмотр не желателен
Качество: BDRip-AVC Rip by
Формат: MKV
Видео: AVC, 1024x426 (2.40:1), 2724 kbps, 23,976 fps, 0,260 bpp
Аудио №1: русский / AC3 / 5.1 / 48 kHz / 448 kbps
Аудио №2: английский / AC3 / 5.1 / 48 kHz / 448 kbps
General
Unique ID : 183207090888196093473155015801389422182 (0x89D466F8F9BC4279AAB11BF37C479666)
Complete name : D:\download\Now You See Me 2. 2016. BDRip-AVC by schultz R.G.Resident.mkv
Format : Matroska
Format version : Version 4 / Version 2
File size : 3.27 GiB
Duration : 2 h 9 min
Overall bit rate : 3 611 kb/s
Encoded date : UTC 2016-08-29 06:15:36
Writing application : mkvmerge v8.9.0 ('Father Daughter') 64bit
Writing library : libebml v1.3.3 + libmatroska v1.4.4

Video
ID : 1
Format : AVC
Format/Info : Advanced Video Codec
Format profile : High@L4.1
Format settings, CABAC : Yes
Format settings, ReFrames : 11 frames
Codec ID : V_MPEG4/ISO/AVC
Duration : 2 h 9 min
Bit rate : 2 724 kb/s
Width : 1 024 pixels
Height : 426 pixels
Display aspect ratio : 2.40:1
Frame rate mode : Constant
Frame rate : 23.976 (23976/1000) FPS
Color space : YUV
Chroma subsampling : 4:2:0
Bit depth : 8 bits
Scan type : Progressive
Bits/(Pixel*Frame) : 0.260
Stream size : 2.46 GiB (75%)
Writing library : x264 core 146 r2538 121396c
Encoding settings : cabac=1 / ref=11 / deblock=1:-3:-3 / analyse=0x3:0x113 / me=umh / subme=11 / psy=1 / psy_rd=1.00:0.00 / mixed_ref=1 / me_range=48 / chroma_me=1 / trellis=2 / 8x8dct=1 / cqm=0 / deadzone=21,11 / fast_pskip=0 / chroma_qp_offset=-2 / threads=12 / lookahead_threads=3 / sliced_threads=0 / nr=0 / decimate=0 / interlaced=0 / bluray_compat=0 / constrained_intra=0 / bframes=12 / b_pyramid=2 / b_adapt=2 / b_bias=0 / direct=3 / weightb=1 / open_gop=0 / weightp=2 / keyint=240 / keyint_min=23 / scenecut=40 / intra_refresh=0 / rc_lookahead=40 / rc=2pass / mbtree=1 / bitrate=2724 / ratetol=1.0 / qcomp=0.60 / qpmin=0 / qpmax=69 / qpstep=4 / cplxblur=20.0 / qblur=0.5 / vbv_maxrate=14000 / vbv_bufsize=14000 / nal_hrd=none / filler=0 / ip_ratio=1.40 / aq=1:1.00
Language : English
Default : Yes
Forced : No

Audio #1
ID : 2
Format : AC-3
Format/Info : Audio Coding 3
Mode extension : CM (complete main)
Format settings, Endianness : Big
Codec ID : A_AC3
Duration : 2 h 9 min
Bit rate mode : Constant
Bit rate : 448 kb/s
Channel(s) : 6 channels
Channel positions : Front: L C R, Side: L R, LFE
Sampling rate : 48.0 kHz
Frame rate : 31.250 FPS (1536 spf)
Compression mode : Lossy
Stream size : 415 MiB (12%)
Language : Russian
Default : Yes
Forced : No

Audio #2
ID : 3
Format : AC-3
Format/Info : Audio Coding 3
Mode extension : CM (complete main)
Format settings, Endianness : Big
Codec ID : A_AC3
Duration : 2 h 9 min
Bit rate mode : Constant
Bit rate : 448 kb/s
Channel(s) : 6 channels
Channel positions : Front: L C R, Side: L R, LFE
Sampling rate : 48.0 kHz
Frame rate : 31.250 FPS (1536 spf)
Compression mode : Lossy
Stream size : 414 MiB (12%)
Language : English
Default : No
Forced : No

Text #1
ID : 4
Format : UTF-8
Codec ID : S_TEXT/UTF8
Codec ID/Info : UTF-8 Plain Text
Duration : 2 h 0 min
Bit rate : 81 b/s
Count of elements : 1934
Stream size : 72.0 KiB (0%)
Title : Full
Language : English
Default : No
Forced : No

Text #2
ID : 5
Format : UTF-8
Codec ID : S_TEXT/UTF8
Codec ID/Info : UTF-8 Plain Text
Duration : 2 h 0 min
Bit rate : 88 b/s
Count of elements : 2115
Stream size : 78.0 KiB (0%)
Title : SDH
Language : English
Default : No
Forced : No

Menu
00:00:00.000 : en:00:00:00.000
00:07:05.133 : en:00:07:05.133
00:16:03.838 : en:00:16:03.838
00:25:29.570 : en:00:25:29.570
00:33:16.828 : en:00:33:16.828
00:39:57.645 : en:00:39:57.645
00:48:07.718 : en:00:48:07.718
00:53:34.711 : en:00:53:34.711
01:03:53.246 : en:01:03:53.246
01:14:00.561 : en:01:14:00.561
01:20:23.569 : en:01:20:23.569
01:26:37.400 : en:01:26:37.400
01:32:37.051 : en:01:32:37.051
01:38:46.837 : en:01:38:46.837
01:48:13.529 : en:01:48:13.529
01:54:04.921 : en:01:54:04.921


pb.wtf



Скачать Иллюзия обмана 2 через торрент http://i77.fastpic.ru/big/2016/0417/a7/808a646271c761f7c7d87df3d366b3a7.png Скачать фильм Иллюзия обмана 2 через торрент бесплантно в хорошем качестве Описание: «Четыре всадника», команда лучших иллюзионистов мира, снова в сборе! Их «магия» стала еще совершеннее, а враги - опаснее. На сей ... 9.9 10 18
Info! Золотая раздача, скачанное не засчитывается.
Торрент: Зарегистрирован [2016-08-29 06:50] · скачан: 757 раз
Статус: √ проверено
Размер: 3.27 GB
Как cкачать? Как скачать Иллюзия обмана 2 через торрент | UTorrent

% Раздел Тема Автор DL S | L
R.G. Resident & PiratVoice - Фильмы, Видео [ 3.01 GB ] Иллюзия обмана 2 / Now You See Me 2 [2016 BDRip-AVC] DUB RUS Transfer] R.G.Resident schultz Скачать
1 | 0

28-11-2019 20:33  

Отключить всю рекламу на сайте

29-08-2016 11:07 Иллюзия обмана 2 Скачать торрент  

Наши хотели, как лучше, а получилось, как всегда. Этот кадр лучше. На российской версии Blu-ray много по бокам обрезали. Особенно с правой стороны.
Вывод: Американский Blu-ray лучше по наполнению кадра в некоторых сценах, хоть и с чёрными полосами.pb.wtf





Последний раз редактировалось: kostak7 (2016-08-29 16:13), всего редактировалось 2 раз(а)

29-08-2016 15:33 Иллюзия обмана 2 Скачать торрент  

Сравнение RUS Transfer vs. US Transfer

http://screenshotcomparison.com/comparison/182741pb.wtf



29-08-2016 16:16 Иллюзия обмана 2 Скачать торрент  

Сравнив разные кадры двух разных версий дисков видно, что в сценах разное заполнение кадра. Во всех сценах выигрывает US Transfer.
Примеры:
http://screenshotcomparison.com/comparison/182802
http://screenshotcomparison.com/comparison/182807
http://screenshotcomparison.com/comparison/182806
http://screenshotcomparison.com/comparison/182804
http://screenshotcomparison.com/comparison/182805pb.wtf





Последний раз редактировалось: kostak7 (2016-10-28 21:39), всего редактировалось 2 раз(а)

31-08-2016 16:36 Иллюзия обмана 2 Скачать торрент  

Спасибо за релиз рус блюр не фонтан совсемpb.wtf



    Дорогой пользователь! Огромная просьба, поблагодарите релизера, оцените раздачу и оставьте свои комментарий, если Вы скачали Иллюзия обмана 2 через торрент бесплатно! Внесите свою лепту в развитие PiratBit!
    Комментировать посты могут только пользователи прошедшие не сложную регистрацию
    Показать сообщения:    

    Иллюзия обмана 2 через торрент
    Скачать бесплатно Иллюзия обмана 2
    Иллюзия обмана 2 скачать торрент
    Иллюзия обмана 2 смотреть онлайн
    Cкачать фильм Иллюзия обмана 2 бесплатно
    Иллюзия обмана 2 скачать торрент в хорошем качестве
    Иллюзия обмана 2 смотреть онлайн бесплатно в хорошем качестве


    Вы не можете начинать темы
    Вы не можете отвечать на сообщения
    Вы не можете редактировать свои сообщения
    Вы не можете удалять свои сообщения
    Вы не можете голосовать в опросах
    Вы не можете прикреплять файлы к сообщениям
    Вы можете скачивать файлы