новый адрес
Мега распродажа FORZA HORIZON 4 ULTIMATE+ВСЕ DLC+ОНЛАЙН всего за 499р. 349 руб. (супер цена). Внимание количество ограничено!!!

iTunes

1+1

iTunes

мы

iTunes

1

iTunes

Чернобыль

iTunes

Ральф против интернета

Лицензия

ПШазам

Лицензия

Оно 2

Лицензия

30
pack

ВАЖНО

!!Акция!!

Alien_RageХит недели

RePack

Resident Evil 21

ИГРА 18+

pack

RePack

Metro:Exodus

!!Акция!!

Alien_Rage

RePack

fifa19

RePack

Assassins Creed: Odyssey

RePack

NEED FOR SPEED™ PAYBACK

3 сезон

9 сезон

Бесстыжие 9 сезон

Все сериалы

все сериалы на PB.wtf

RePack

FAR CRY 5
Ребята, катастрофически не хватает 1900р. для оплаты серверов за Октябрь (всвязи с блокировками трафик упал в 3 раза), 1-2р., выручайте.
  

Земля и люди (Станислав Ростоцкий) [1955, СССР, драма, SATRip от AVP Studio] pb.wtf

Земля и люди через торрент pb.wtf

Размер: 1.46 GB | Добавлен: 3 года 2 мес. назад | Торрент скачан:13 раз
Скачать  

29-08-2016 07:55 Земля и люди Скачать торрент  

Земля и люди
Страна: СССР
Производство: Киностудия им. Горького

Жанр: драма
Год выпуска: 1955
Продолжительность: 01:38:32

Перевод: Не требуется
Cубтитры: нет
Оригинальная аудиодорожка: русский

Режиссер: Станислав Ростоцкий

В ролях:
Алексей Егоров, Елена Батенина, Пётр Чернов, Владимир Иванов, Римма Шорохова, Владимир Ратомский, Пётр Алейников, Григорий Белов, Иван Кузнецов, Борис Ситко, Михаил Пуговкин, Анатолий Кубацкий, Вера Алтайская, Валентина Телегина, Светлана Харитонова, Евгений Гуров, Николай Граббе, Евгений Кудряшёв, Пётр Константинов...
Полный список актёров

Описание:
1953 год. Председателю колхоза «Новая жизнь» Самоварову, консерватору и перестраховщику, приходится не по душе молодой агроном-новатор Шуров. В разгар посевной кампании Самоваров запрещает Шурову сев пшеницы новым методом. Однако Шуров, видя всю пагубность распоряжения председателя, решает поступить по-своему. С помощью бригадира Алёши Пшеничкина, старого хлебороба Терентия Петровича и студентки-практикантки Тоси Ельниковой он производит сев пшеницы по взлущенной земле. Узнав об этом, Самоваров жалуется в районный центр на незаконные действия агронома. Прокуратура начинает следствие…

Источник: DVB
Качество видео: SATRip
Формат видео: AVI

Видео: 688x512 (4:3), 25 fps, XviD ~ 1920 kbps avg, 0.218 bit/pixel
Аудио: 48 kHz, Dolby Digital AC3 2.0, 192 kbps

Раздача от:
Общее
Полное имя : Zemlya.i.lyudi.1955.SATRip_[New-team]_by_AVP_Studio.avi
Формат : AVI
Формат/Информация : Audio Video Interleave
Размер файла : 1,46 Гбайт
Продолжительность : 1 ч. 38 м.
Общий поток : 2122 Кбит/сек
Программа кодирования : VirtualDubMod 1.5.10.3 | www.virtualdub-fr.org || (build 2550/release)
Библиотека кодирования : VirtualDubMod build 2550/release

Видео
Идентификатор : 0
Формат : MPEG-4 Visual
Профиль формата : Advanced Simple@L5
Параметр BVOP формата : 1
Параметр QPel формата : Нет
Параметр GMC формата : Без точки перехода
Параметр матрицы формата : Выборочная
Идентификатор кодека : XVID
Идентификатор кодека/Подсказка : XviD
Продолжительность : 1 ч. 38 м.
Битрейт : 1920 Кбит/сек
Ширина : 688 пикселей
Высота : 512 пикселей
Соотношение сторон : 4:3
Частота кадров : 25,000 кадров/сек
Цветовое пространство : YUV
Субдискретизация насыщенности : 4:2:0
Битовая глубина : 8 бит
Тип развёртки : Прогрессивная
Метод сжатия : С потерями
Бит/(Пиксели*Кадры) : 0.218
Размер потока : 1,32 Гбайт (90%)
Библиотека кодирования : XviD 1.2.1 (UTC 2008-12-04)

Аудио
Идентификатор : 1
Формат : AC-3
Формат/Информация : Audio Coding 3
Расширение режима : CM (complete main)
Параметр Endianness формата : Big
Идентификатор кодека : 2000
Продолжительность : 1 ч. 38 м.
Вид битрейта : Постоянный
Битрейт : 192 Кбит/сек
Каналы : 2 канала
Расположение каналов : Front: L R
Частота : 48,0 КГц
Частота кадров : 31,250 кадров/сек (1536 spf)
Метод сжатия : С потерями
Размер потока : 135 Мбайт (9%)
Выравнивание : Разделение по промежуткам
Продолжительность промежутка : 40 мс. (1,00 видеокадр)
Время предзагрузки промежутка : 500 мс
pb.wtf



Скачать Земля и люди через торрент http://s017.radikal.ru/i419/1608/a2/2a6a2006962e.png Скачать фильм Земля и люди через торрент бесплантно в хорошем качестве Описание:1953 год. Председателю колхоза «Новая жизнь» Самоварову, консерватору и перестраховщику, приходится не по душе молодой ... 10 10 1
Info! Золотая раздача, скачанное не засчитывается.
Торрент: Зарегистрирован [2016-08-29 07:55] · скачан: 13 раз
Статус: √ проверено
Размер: 1.46 GB
Как cкачать? Как скачать Земля и люди через торрент | qTorrent

% Раздел Тема Автор DL S | L
Кино СССР [ 747 MB ] Земля и люди [1955 СССР SATRip от AVP Studio] AVP Studio Скачать
1 | 0
Кино СССР [ 1.46 GB ] Земля и люди [1955 СССР SATRip-AVC от AVP Studio] AVP Studio Скачать
1 | 0


>> Регистрируемся здесь <<






Отзывы и комментарии о схеме читаем и пишем здесь: ---> Отзывы и комментарии о схеме

Новые благодарочки в телеграм довольных пользователей:
скриншот   скриншот   скриншот   скриншот   скриншот
    Дорогой пользователь! Огромная просьба, поблагодарите релизера, оцените раздачу и оставьте свои комментарий, если Вы скачали Земля и люди через торрент бесплатно! Внесите свою лепту в развитие PiratBit!
    Комментировать посты могут только пользователи прошедшие не сложную регистрацию
    Показать сообщения:    

    Земля и люди через торрент
    Скачать бесплатно Земля и люди
    Земля и люди скачать торрент
    Земля и люди смотреть онлайн
    Cкачать фильм Земля и люди бесплатно
    Земля и люди скачать торрент в хорошем качестве
    Земля и люди смотреть онлайн бесплатно в хорошем качестве


    Вы не можете начинать темы
    Вы не можете отвечать на сообщения
    Вы не можете редактировать свои сообщения
    Вы не можете удалять свои сообщения
    Вы не можете голосовать в опросах
    Вы не можете прикреплять файлы к сообщениям
    Вы можете скачивать файлы