Всегда рабочее зеркало без VPN и Proxy просто перед .vidak.icu напиши любое слово или цифру, Пример http://nug9.vidak.icu

MVO

MVO

1 сезон

1

1 сезон

iTunes

1 сезон

13

1 сезон

Deluxe

pack

Рекомендуем

Repack

30

ВАЖНО

RePack

MK11

RePack

jed

RePack

fifa19

RePack

RDR2

RePack

NEED FOR SPEED™ PAYBACK

Кинопоиск HD

6 сезон

 Острые козырьки 6 сезон

Все сериалы

все сериалы на PB.wtf

RePack

FAR CRY 5
  
Magnet ссылка

От заката до рассвета / From Dusk Till Dawn: The Series / Сезон: 3 / Серии 1-10 из 10 (Роберт Родригес / Robert Rodriguez, Джо Менендес / Joe Menendez) [2016, США, боевик, ужасы, криминал, WEB-DLRip-AVC] MVO [NewStudio] pb.wtf

От заката до рассвета через торрент pb.wtf

Размер: 8.18 GB | Добавлен: 5 лет 9 мес. назад | Торрент скачан:38 раз
Смотреть онлайн От заката до рассвета | Скачать    Ребята, помогите собрать деньги на оплату серверов!!!

29-08-2016 08:35 От заката до рассвета Скачать торрент  


От заката до рассвета / From Dusk Till Dawn: The Series



  • Год выпуска: 2016
  • Страна: США
  • Жанр: боевик, ужасы, криминал, фэнтези
  • Продолжительность: 00:40:48 (Серия)
  • Перевод: Профессиональный многоголосый
  • Режиссер: Роберт Родригес / Robert Rodriguez, Джо Менендес / Joe Menendez, Дуайт Х. Литтл / Dwight H. Little
  • В ролях:

    Д.Дж. Котрона (Seth Gecko), Зейн Холц (Richie Gecko), Роберт Патрик (Jacob Fuller), Мэдисон Девенпорт (Kate Fuller), Эйса Гонсалес (Santánico Pandemonium), Джесси Гарсиа (Freddie Gonzalez), Брэндон Су Ху (Scott Fuller), Уилмер Вальдеррама (Carlos Madrigal), Джейк Бьюзи (Professor Aiden Tanner), Дон Джонсон (Sheriff Earl McGraw), Мануэль Рульфо (Narciso), Эдрианн Палики (Vanessa Styles)


  • Сет Гекко, грабитель банков, и его не совсем психически стабильный братец Ричард находятся в розыске. Разыскивают их не только ФБР, но и техасские законники - шериф МакГроу и рейнджер Гонсалес, которые утраивают усилия, когда после очередного ограбления, устроенного братьями Гекко, в банке остается несколько трупов. Пытаясь удрать в Мексику, Гекко сталкиваются с бывшим священником Джейкобом Фуллером и его семьёй, которых берут в заложники и в их же трейлере отправляются к мексиканской границе. Заехав в небольшой стрип-клуб по дороге, они неудачно знакомятся с целой прорвой жаждущих крови вампиров и пытаются хотя бы дожить до рассвета, не говоря уже о том, чтобы истребить как можно больше чудовищ.
  • Рейтинг:



  • Качество: WEB-DLRip-AVC
  • Формат: :MPEG-4
  • Видео кодек: AVC
  • Аудио кодек: AC3
  • Видео: 1024x576 (16:9), 2000 kbps, 23,976 fps, 0,141 bpp
  • Аудио №1: русский / 5.1 / 48 kHz / 384 kbps / 16 bit |[NewStudio]|
  • Аудио №2: английский / 5.1 / 48 kHz / 384 kbps / 16 bit
  • Релиз от: GEKADOL

    Внимание! Раздача ведётся путём добавления новых серий; при каждом добавлении создаётся новый торрент. Чтобы начать докачку новой серии, пользователям необходимо сделать следующее:
    (1) остановить скачивание,
    (2) удалить старый торрент у себя из клиента (старые серии удалять не надо),
    (3) скачать новый торрент и запустить его у себя в клиенте вместо старого, при этом указать клиенту путь в старую папку куда и должно происходить скачивание новых серий.
    Ваш клиент при этом должен произвести хеширование (проверку) старой папки (если не производит сам - помогите ему сделать это), и будет докачивать только те серии которых у вас ещё нет. Старые серии при этом не удаляются, а продолжают раздаваться!
    Eсли вы уже удалили старые серии, то предотвратить повторную закачку старых серий можно, отжав галочку в соответсвующих местах при запуске нового торрента. По возможности, желательно не удалять старые серии как можно дольше чтобы релизёр не столько продолжал раздавать старые серии, а смог сконцентрироваться на новых.

    General
    Complete name : H:\От заката до рассвета (Сезон 3)\From.Dusk.Till.Dawn.s03e01.WEB-DLRip-AVC.NewStudio.TV.mp4
    Format : MPEG-4
    Format profile : Base Media
    Codec ID : isom (isom/iso2/avc1/mp41)
    File size : 810 MiB
    Duration : 40 min
    Overall bit rate : 2 774 kb/s
    Writing application : XviD4PSP 7.0.285 DAILY
    HDVideo : Yes
    encoding_info : MATROSKA / WEBM > MP4 Произвольный / H264 > X264 CBR 2000kbps HQ / AC3 > AC3 CBR 384kbps / AC3 > AC3 CBR 384kbps

    Video
    ID : 1
    Format : AVC
    Format/Info : Advanced Video Codec
    Format profile : [email protected]
    Format settings, CABAC : Yes
    Format settings, ReFrames : 4 frames
    Codec ID : avc1
    Codec ID/Info : Advanced Video Coding
    Duration : 40 min
    Bit rate : 2 000 kb/s
    Width : 1 024 pixels
    Height : 576 pixels
    Display aspect ratio : 16:9
    Frame rate mode : Constant
    Frame rate : 23.976 (24000/1001) FPS
    Color space : YUV
    Chroma subsampling : 4:2:0
    Bit depth : 8 bits
    Scan type : Progressive
    Bits/(Pixel*Frame) : 0.141
    Stream size : 584 MiB (72%)
    Title : From.Dusk.Till.Dawn.S03E01.1080p.WEB-DL.DD5.1.H264-RARBG / From.Dusk.Till.Dawn.S03E01.1080p.WEB-DL.DD5.1.H264-RARBG
    Writing library : x264 core 148 r2705M 3f5ed56
    Encoding settings : cabac=1 / ref=3 / deblock=1:-1:-1 / analyse=0x3:0x133 / me=hex / subme=7 / psy=1 / psy_rd=1.00:0.20 / mixed_ref=1 / me_range=16 / chroma_me=1 / trellis=1 / 8x8dct=1 / cqm=0 / deadzone=21,11 / fast_pskip=1 / chroma_qp_offset=-3 / threads=5 / lookahead_threads=1 / sliced_threads=0 / nr=0 / decimate=1 / interlaced=0 / bluray_compat=0 / constrained_intra=0 / bframes=3 / b_pyramid=2 / b_adapt=2 / b_bias=0 / direct=3 / weightb=1 / open_gop=0 / weightp=2 / keyint=230 / keyint_min=23 / scenecut=40 / intra_refresh=0 / rc_lookahead=40 / rc=cbr / mbtree=1 / bitrate=2000 / ratetol=1.0 / qcomp=0.60 / qpmin=0 / qpmax=69 / qpstep=4 / vbv_maxrate=2000 / vbv_bufsize=30000 / nal_hrd=none / filler=0 / ip_ratio=1.40 / aq=1:1.00
    Language : English
    Color range : Limited
    Color primaries : BT.709
    Transfer characteristics : BT.709
    Matrix coefficients : BT.709

    Audio #1
    ID : 2
    Format : AC-3
    Format/Info : Audio Coding 3
    Mode extension : CM (complete main)
    Format settings, Endianness : Big
    Codec ID : ac-3
    Duration : 40 min
    Bit rate mode : Constant
    Bit rate : 384 kb/s
    Channel(s) : 6 channels
    Channel positions : Front: L C R, Side: L R, LFE
    Sampling rate : 48.0 kHz
    Frame rate : 31.250 FPS (1536 spf)
    Bit depth : 16 bits
    Compression mode : Lossy
    Stream size : 112 MiB (14%)
    Title : NewStudio.TV / NewStudio.TV
    Language : Russian
    Default : Yes
    Alternate group : 1

    Audio #2
    ID : 3
    Format : AC-3
    Format/Info : Audio Coding 3
    Mode extension : CM (complete main)
    Format settings, Endianness : Big
    Codec ID : ac-3
    Duration : 40 min
    Bit rate mode : Constant
    Bit rate : 384 kb/s
    Channel(s) : 6 channels
    Channel positions : Front: L C R, Side: L R, LFE
    Sampling rate : 48.0 kHz
    Frame rate : 31.250 FPS (1536 spf)
    Bit depth : 16 bits
    Compression mode : Lossy
    Stream size : 112 MiB (14%)
    Language : English
    Default : No
    Alternate group : 1



    Скриншоты:
    скриншот   скриншот   скриншот   скриншот   скриншот   скриншот   скриншот  
    скриншот  

    Раздача ведётся путём добавления новых серий. Добавлена 10 серия (06.11.2016).Просьба перекачать торрент файл.

    pb.wtf



  • Скачать От заката до рассвета через торрент https://pic1.kartinco.top/images/10/s8p5f.jpg Скачать, смотреть онлайн От заката до рассвета бесплантно в хорошем качестве qw.png Сет Гекко, грабитель банков, и его не совсем психически стабильный братец Ричард находятся в розыске. Разыскивают их не только ... 9.3 10 16
    Info! Золотая раздача, скачанное не засчитывается.
    Торрент: Зарегистрирован [2016-11-06 03:21] · скачан: 38 раз
    Статус: √ проверено
    Размер: 8.18 GB
    Как cкачать? Как скачать От заката до рассвета через торрент | UTorrent



    Последний раз редактировалось: GEKADOL (2016-11-06 03:21), всего редактировалось 9 раз(а)

    28-11-2019 20:33  

    Отключить вcю реклaмy на сайте

    12-09-2016 17:30 От заката до рассвета Скачать торрент  

    Во,это я понимаю,наша тема,вампирчики)А то уже если честно надоели эти зомби у которых непрекращающийся жор.pb.wtf



    12-09-2016 23:38 От заката до рассвета Скачать торрент  

    Александр1300 писал(а):

    Во,это я понимаю,наша тема,вампирчики)А то уже если честно надоели эти зомби у которых непрекращающийся жор.

    pb.wtf



    16-09-2016 02:52 От заката до рассвета Скачать торрент  

    Усё ребят серебрить и золотить смогу ещё какое то время пока мани не кончатся) а потом звиняйте) разжаловали меня) pb.wtf



    24-09-2016 01:36 От заката до рассвета Скачать торрент  

    Продолжаем в обычном режиме) Админы мани подкинули pb.wtf



      Дорогой пользователь! Огромная просьба, поблагодарите релизера, оцените раздачу и оставьте свои комментарий, если Вы скачали От заката до рассвета через торрент бесплатно!
      Комментировать посты могут только пользователи прошедшие не сложную регистрацию
      Показать сообщения:    

      От заката до рассвета через торрент
      Скачать бесплатно От заката до рассвета
      От заката до рассвета скачать торрент
      От заката до рассвета смотреть онлайн
      Cкачать фильм От заката до рассвета бесплатно
      От заката до рассвета скачать торрент в хорошем качестве
      От заката до рассвета смотреть онлайн бесплатно в хорошем качестве


      Вы не можете начинать темы
      Вы не можете отвечать на сообщения
      Вы не можете редактировать свои сообщения
      Вы не можете удалять свои сообщения
      Вы не можете голосовать в опросах
      Вы не можете прикреплять файлы к сообщениям
      Вы можете скачивать файлы