2 сезон

iTunes

1 сезон

1

iTunes

iTunes

iTunes

1 сезон

RePack

30

ИГРА 18+

pack

ВАЖНО

!!Акция!!

Alien_RageХит недели

RePack

MK11
pack

Забери бонус

RePack

jed

!!Акция!!

Alien_Rage

RePack

fifa19

RePack

Assassins Creed: Odyssey

RePack

NEED FOR SPEED™ PAYBACK

4 сезон

9 сезон

Бесстыжие 9 сезон

Все сериалы

все сериалы на PB.wtf

RePack

FAR CRY 5
  

Шаман.Новая угроза ( Шаман-3 ) / Серии: 1-32 из 32 ( Максим Кубринский, Дмитрий Аверин) [2016, детектив,криминал, SATRip-AVC] pb.wtf

Шаман.Новая угроза через торрент pb.wtf

Размер: 16.72 GB | Добавлен: 4 года 1 мес. назад | Торрент скачан:205 раз
Скачать  

29-08-2016 22:42 Шаман.Новая угроза Скачать торрент  

Шаман.Новая угроза ( Шаман-3 )




Год выпуска: 2016
Производство: Россия,"Гамма-Продакшн" и «Студия «Заря»
Жанр: детектив,криминал
Продолжительность: 00:45:00
Субтитры: нет



Режиссёр: Максим Кубринский, Дмитрий Аверин



В ролях: Владимир Скворцов, Сергей Мардарь, Нелли Попова, Екатерина Миронова , Андрей Гульнев, Алексей Васильев , Александр Колесник, Кирилл Щербина, Екатерина Тарасова, Игорь Ботвин, Олег Харитонов, Владимир Розыграев, Владимир Матвеев, Ксения Каталымова, Светлана Щедрина, Жанна Куприянова, Снежана Прудько, Александр Волков , Василий Юркевич, Глеб Денисов, Сергей Малюгов, Анастасия Тюнина, Сергей Сафронов, Игорь Грабузов.




Описание: Иван принимает решение начать жить новой жизнью, он понимает, что все его время посвящено работе – постоянной поимке преступников, но после того, как ему удалось лишить свободы самого злейшего врага, который не давал возможности людям жить спокойной жизнью, все встало на круги своя. Сын главного героя хочет тоже пойти по стопам своего отца и стать следователем, этот факт очень радует героя, но есть ситуация, которая никак не дает ему покоя, отношения с женским полом не ладиться. Все дело в том, что после того, как супруга главного героя умерла, после этого тяжело момента, он так и не смог построить отношения с другими женщинами. Дни неумолимо летят вперед, все вокруг терпит изменения, но не одной женщине не удается заменить его умершую супругу. Естественно, что похоть берет верх, ведь всем хочется испытывать чувство любви и ласки. Но и работа не стоит на месте, появляется новый оппонент. Между героем и его давним недругом начинается противостояние, всему виной разные взгляды на рабочие моменты, ведь герой готов пойти на любые методы, чтобы до конца решить ситуацию, а адвокату это не по нраву, хотя и он не может похвастаться соблюдением закона.







Качество: SATRip-AVC
Формат: MKV
Видео кодек: H.264
Аудио кодек: AC3
Видео: MPEG-4 AVC, 720х400,25fps,~1500 Кбит/сек,Bits/Pixel 0.236
Аудио: AC3, 48 kHz, ~192 Kbps, 2 канала



Общее
Уникальный идентификатор : 202694878645008424441405396347077419242 (0x987D9D17399BAD3D856C970D910E60EA)
Полное имя : E:\Шаман-3\01 серия_Шаман-3_rip by_Aleksan55.mkv
Формат : Matroska
Версия формата : Version 2
Размер файла : 547 Мбайт
Продолжительность : 45 м.
Общий поток : 1694 Кбит/сек
Дата кодирования : UTC 2016-08-29 19:53:18
Программа кодирования : mkvmerge v7.8.0 ('River Man') 32bit built on Apr 3 2015 12:11:22
Библиотека кодирования : libebml v1.3.1 + libmatroska v1.4.2

Видео
Идентификатор : 1
Формат : AVC
Формат/Информация : Advanced Video Codec
Профиль формата : High@L4.1
Параметр CABAC формата : Да
Параметр ReFrames формата : 12 кадров
Идентификатор кодека : V_MPEG4/ISO/AVC
Продолжительность : 45 м.
Битрейт : 1500 Кбит/сек
Ширина : 720 пикселей
Высота : 400 пикселей
Соотношение сторон : 16:9
Режим частоты кадров : Постоянный
Частота кадров : 25,000 кадров/сек
Цветовое пространство : YUV
Субдискретизация насыщенности : 4:2:0
Битовая глубина : 8 бит
Тип развёртки : Прогрессивная
Бит/(Пиксели*Кадры) : 0.208
Размер потока : 474 Мбайт (87%)
Библиотека кодирования : x264 core 148 r2638 7599210
Настройки программы : cabac=1 / ref=12 / deblock=1:-3:-3 / analyse=0x3:0x113 / me=umh / subme=9 / psy=1 / psy_rd=1.00:0.15 / mixed_ref=0 / me_range=48 / chroma_me=1 / trellis=2 / 8x8dct=1 / cqm=0 / deadzone=21,11 / fast_pskip=1 / chroma_qp_offset=-3 / threads=3 / lookahead_threads=3 / sliced_threads=0 / nr=0 / decimate=1 / interlaced=0 / bluray_compat=0 / constrained_intra=0 / bframes=12 / b_pyramid=2 / b_adapt=1 / b_bias=0 / direct=3 / weightb=1 / open_gop=0 / weightp=2 / keyint=250 / keyint_min=25 / scenecut=40 / intra_refresh=0 / rc_lookahead=40 / rc=2pass / mbtree=1 / bitrate=1500 / ratetol=1.0 / qcomp=0.60 / qpmin=0 / qpmax=69 / qpstep=4 / cplxblur=20.0 / qblur=0.5 / ip_ratio=1.40 / aq=1:1.20
Default : Да
Forced : Нет
Цветовой диапазон : Limited
Основные цвета : BT.601 PAL
Характеристики трансфера : BT.470 System B, BT.470 System G
Коэффициенты матрицы : BT.601

Аудио
Идентификатор : 2
Формат : AC-3
Формат/Информация : Audio Coding 3
Расширение режима : CM (complete main)
Параметр Endianness формата : Big
Идентификатор кодека : A_AC3
Продолжительность : 45 м.
Вид битрейта : Постоянный
Битрейт : 192 Кбит/сек
Каналы : 2 канала
Расположение каналов : Front: L R
Частота : 48,0 КГц
Метод сжатия : С потерями
Размер потока : 62,0 Мбайт (11%)
Default : Да
Forced : Нет
Внимание! Раздача ведётся путём добавления новых серий; при каждом добавлении создаётся новый торрент.
Чтобы начать докачку новой серии, пользователям необходимо сделать следующее:
1. Остановить скачивание;
2. Удалить старый торрент у себя из клиента (старые серии удалять не надо);
3. Скачать новый торрент и запустить его у себя в клиенте вместо старого, при этом указать клиенту путь в старую папку куда и должно происходить скачивание новых серий. Ваш клиент при этом должен произвести хеширование (проверку) старой папки и будет докачивать только те серии, которых у вас ещё нет. Старые серии при этом не удаляются, а продолжают раздаваться! Eсли вы уже удалили старые серии, то предотвратить повторную закачку старых серий можно, отжав галочку в соответствующих местах при запуске нового торрента.


Рекламы нет.Добавлена 25-32 серия.pb.wtf



Скачать Шаман.Новая угроза через торрент http://s019.radikal.ru/i633/1608/24/04bc2f1ede25.jpg Скачать фильм Шаман.Новая угроза через торрент бесплантно в хорошем качестве Описание: Иван принимает решение начать жить новой жизнью, он понимает, что все его время посвящено работе – постоянной поимке ... 9.2 10 12
Info! Золотая раздача, скачанное не засчитывается.
Торрент: Зарегистрирован [2016-09-16 06:54] · скачан: 205 раз
Статус: √ проверено
Размер: 16.72 GB
Как cкачать? Как скачать Шаман.Новая угроза через торрент | qTorrent

% Раздел Тема Автор DL S | L
Наши сериалы [ 17.21 GB ] Шаман. Новая угроза / 3 сезон / 32 серии из 32 [2016 HDTVRip] bober100 Скачать
1 | 0


Последний раз редактировалось: aleksan55 (2016-09-06 21:27), всего редактировалось 3 раз(а)

28-11-2019 20:33  

Отключить всю рекламу на сайте

    Дорогой пользователь! Огромная просьба, поблагодарите релизера, оцените раздачу и оставьте свои комментарий, если Вы скачали Шаман.Новая угроза через торрент бесплатно! Внесите свою лепту в развитие PiratBit!
    Комментировать посты могут только пользователи прошедшие не сложную регистрацию
    Показать сообщения:    

    Шаман.Новая угроза через торрент
    Скачать бесплатно Шаман.Новая угроза
    Шаман.Новая угроза скачать торрент
    Шаман.Новая угроза смотреть онлайн
    Cкачать фильм Шаман.Новая угроза бесплатно
    Шаман.Новая угроза скачать торрент в хорошем качестве
    Шаман.Новая угроза смотреть онлайн бесплатно в хорошем качестве


    Вы не можете начинать темы
    Вы не можете отвечать на сообщения
    Вы не можете редактировать свои сообщения
    Вы не можете удалять свои сообщения
    Вы не можете голосовать в опросах
    Вы не можете прикреплять файлы к сообщениям
    Вы можете скачивать файлы