Ссылка на приватное зеркало всего за 1$. Внимание количество ограничено!!!

iTunes

1+1

iTunes

мы

WEB-DL

1

iTunes

Чернобыль

iTunes

Ральф против интернета

Лицензия

ПШазам

Лицензия

Оно 2

Лицензия

30
pack

Вам бонус

ВАЖНО

!!Акция!!

Alien_RageХит недели

RePack

Resident Evil 21

ИГРА 18+

pack

RePack

jed

!!Акция!!

Alien_Rage

RePack

fifa19

RePack

Assassins Creed: Odyssey

RePack

NEED FOR SPEED™ PAYBACK

3 сезон

9 сезон

Бесстыжие 9 сезон

Все сериалы

все сериалы на PB.wtf

RePack

FAR CRY 5
Ребята, катастрофически не хватает 1900р. для оплаты серверов за Октябрь (всвязи с блокировками трафик упал в 3 раза), 1-2р., выручайте.
  

Темная дорога / Black Road (Гари Лунгрен) [2016 г., фантастика, триллер, HDRip, Любительский одноголосый Xixidok] pb.wtf

Темная дорога через торрент pb.wtf

Размер: 1.45 GB | Добавлен: 3 года 3 мес. назад | Торрент скачан:148 раз
Скачать  

30-08-2016 05:07 Темная дорога Скачать торрент  

Темная дорога / Black Road
Год выпуска: 2016
Страна: США
Жанр: фантастика, триллер
Продолжительность: 01:21:08
Перевод: Любительский одноголосый Xixidok
Примечание: Без рекламы
Субтитры: English (внешние)

Режиссер: Гари Лунгрен
Продюссер: Энн Лунгрен, Ginny Auer, Henry Bataille
Сценарий: Гари Лунгрен

Премьера в мире: 28 января 2016



В ролях: Сэм Дэйли, Саймон Темплмен, Лейлани Сарелл, Мишель Ломбардо, Дэнфорт Коминс, Дэн Донохью, Майк Эстес

Описание: В 2029 году бывший военный, а ныне безработный киборг, принимает заказ защитить женщину от ее бывшего, который пытается ее убить. В этом ему помогает искусственный интеллект по имени Клайд, имплантированный ему в голову, который является ему партнером и другом.

Качество: HDRip
Формат: AVI
Видео кодек: XviD
Аудио кодек: MP3
Видео: XviD, 2357 Kb/s, 720x304 (2,35:1), 23,976 кадра/сек
Аудио: MP3, 192 Kb/s (2 ch), 44,1 КГц

Скриншоты">скриншот   скриншот   скриншот   скриншот   скриншот  
Трэйлер">
Mediainfo">
Общее
Полное имя : D:\Downloads\Black Road (2016) HDRip\Black.Road.2016.HDRip.avi
Формат : AVI
Формат/Информация : Audio Video Interleave
Профиль формата : OpenDML
Размер файла : 1,45 Гбайт
Продолжительность : 1 ч. 21 м.
Общий поток : 2556 Кбит/сек
Программа кодирования : XviD4PSP 6.0 / 54.29.105

Видео
Идентификатор : 0
Формат : xvid
Идентификатор кодека : xvid
Продолжительность : 1 ч. 21 м.
Битрейт : 2351 Кбит/сек
Ширина : 720 пикселей
Высота : 304 пикселя
Соотношение сторон : 2,35:1
Частота кадров : 23,976 кадра/сек
Тип развёртки : Прогрессивная
Бит/(Пиксели*Кадры) : 0.448
Размер потока : 1,33 Гбайт (92%)

Аудио
Идентификатор : 1
Формат : MPEG Audio
Версия формата : Version 1
Профиль формата : Layer 3
Идентификатор кодека : 55
Идентификатор кодека/Подсказка : MP3
Продолжительность : 1 ч. 21 м.
Вид битрейта : Постоянный
Битрейт : 192 Кбит/сек
Каналы : 2 канала
Частота : 44,1 КГц
Метод сжатия : С потерями
Размер потока : 111 Мбайт (8%)
Выравнивание : Соединение по промежуткам
Продолжительность промежутка : 26 мс. (0,63 видеокадр)

Общее
Полное имя : D:\Downloads\Black Road (2016) HDRip\Eng.srt
Формат : SubRip
Размер файла : 67,7 Кбайт

Текст
Формат : SubRip
Метод сжатия : Без потерь

pb.wtf



Скачать Темная дорога через торрент http://pic1.kartinco.top/images/10/9iski.jpg Скачать фильм Темная дорога через торрент бесплантно в хорошем качестве Описание: В 2029 году бывший военный, а ныне безработный киборг, принимает заказ защитить женщину от ее бывшего, который пытается ее убить. ... 9.9 10 7
Торрент: Зарегистрирован [2016-08-30 05:07] · скачан: 148 раз
Статус: T временная
Размер: 1.45 GB
Как cкачать? Как скачать Темная дорога через торрент | qTorrent

% Раздел Тема Автор DL S | L
T Фильмы 2016 [DVDrip, WEB-DLRip, HDrip] (DUB, MVO) [ 1.37 GB ] Темная дорога / Black Road [2016 WEB-DLRip] MVO smaster Скачать
1 | 0

28-11-2019 20:33  

Отключить всю рекламу на сайте

30-08-2016 06:17 Темная дорога Скачать торрент  

Куда катимся уже и киборги безработныеpb.wtf



30-08-2016 06:22 Темная дорога Скачать торрент  

Dante1987 писал(а):

Куда катимся уже и киборги безработные

pb.wtf



30-08-2016 07:27 Темная дорога Скачать торрент  

и как всегда хихидок ему на пенсию пора pb.wtf



30-08-2016 08:11 Темная дорога Скачать торрент  

Хихидок опять шлак)pb.wtf



30-08-2016 14:53 Темная дорога Скачать торрент  

Цитата:

Темная дорога / Black Road (Гари Лунгрен) [2016 г., фантастика, триллер, HDRip, Любительский одноголосый Xixidok]

Не чего им чтоли уже стало снимать за последнее время идет одна чушь,дребедень скоро смотреть будет не чего.pb.wtf



30-08-2016 15:05 Темная дорога Скачать торрент  

хихидок своим гнусавым голоском всё портит, лучше не переводиpb.wtf



31-08-2016 14:02 Темная дорога Скачать торрент  

шлакpb.wtf



03-09-2016 16:43 Темная дорога Скачать торрент  

Dante1987 писал(а):

Куда катимся уже и киборги безработные

Да ещё и телок пердолят роботы..... бабы сума сошли... pb.wtf



    Дорогой пользователь! Огромная просьба, поблагодарите релизера, оцените раздачу и оставьте свои комментарий, если Вы скачали Темная дорога через торрент бесплатно! Внесите свою лепту в развитие PiratBit!
    Комментировать посты могут только пользователи прошедшие не сложную регистрацию
    Показать сообщения:    

    Темная дорога через торрент
    Скачать бесплатно Темная дорога
    Темная дорога скачать торрент
    Темная дорога смотреть онлайн
    Cкачать фильм Темная дорога бесплатно
    Темная дорога скачать торрент в хорошем качестве
    Темная дорога смотреть онлайн бесплатно в хорошем качестве


    Вы не можете начинать темы
    Вы не можете отвечать на сообщения
    Вы не можете редактировать свои сообщения
    Вы не можете удалять свои сообщения
    Вы не можете голосовать в опросах
    Вы не можете прикреплять файлы к сообщениям
    Вы можете скачивать файлы