Ссылка на приватное зеркало всего за 1$. Внимание количество ограничено!!!

iTunes

iTunes

iTunes

1

iTunes

iTunes

iTunes

iTunes

iTunes

30
pack

$ от Little Big

ВАЖНО

!!Акция!!

Alien_RageХит недели

RePack

Resident Evil 21

ИГРА 18+

pack

RePack

jed

!!Акция!!

Alien_Rage

RePack

fifa19

RePack

Assassins Creed: Odyssey

RePack

NEED FOR SPEED™ PAYBACK

4 сезон

9 сезон

Бесстыжие 9 сезон

Все сериалы

все сериалы на PB.wtf

RePack

FAR CRY 5
  

Окно (Николай Николайчук ) [2015, драма, WEB-DLRip, [Русский] pb.wtf

Окно через торрент pb.wtf

Раздают: 1 [ 0 KB/s ]
Размер: 1.37 GB | Добавлен: 3 года 9 мес. назад | Торрент скачан:395 раз
Скачать  

30-08-2016 06:33 Окно Скачать торрент  

Окно

Год выпуска: 2015
Страна: Россия
Жанр: драма
Продолжительность: 01:25:05
Перевод: Не требуется [Русский]
Режиссер: Николай Николайчук
В ролях: Иван Шмаков (Никита), Валентин Зверков, Ирма Арендт, Инга Матис (Марина), Олег Меньшенин, Роман Камалов, Денис Шамриков, Олег Половников, Екатерина Шарафиева, Алексей Черемисинов
Описание:
Девяностые годы. В разваленной больничной палате, где даже окно забито фанерой, к парализованному молодому человеку из-за перелома позвоночника, пострадавшему в результате аварии, подселяют свеженького соседа, с таким же диагнозом. Казалось бы, что им ещё делить в этом мире, когда оба находятся в лежачем положении по 24 часа в сутки, но когда лишь у одного находится кнопка вызова медсестры, а у второго выход в мир через маленькое отверстие в фанере окна, у таких людей начинаются совсем другие заботы и радости в этой жизни.
Рейтинг:

http://www.imdb.com/title/tt5298138/
Присутствует Реклама!!!
Качество: WEB-DLRip
Формат: AVI
Видео: XviD, 720x304 (2.35:1), 1905 kbps, 25 fps, 0,348 bpp
Аудио: AC3 / 2.0 / 48 kHz / 384 kbps /

Код:

General
Complete name                            : E:\ОКНО_2015.avi
Format                                   : AVI
Format/Info                              : Audio Video Interleave
File size                                : 1.37 GiB
Duration                                 : 1 h 25 min
Overall bit rate                         : 2 300 kb/s
Writing application                      : VirtualDubMod 1.5.10.2 (build 2540/release)
Writing library                          : VirtualDubMod build 2540/release

Video
ID                                       : 0
Format                                   : MPEG-4 Visual
Format profile                           : Advanced Simple@L5
Format settings, BVOP                    : 2
Format settings, QPel                    : No
Format settings, GMC                     : No warppoints
Format settings, Matrix                  : Custom
Codec ID                                 : XVID
Codec ID/Hint                            : XviD
Duration                                 : 1 h 25 min
Bit rate                                 : 1 906 kb/s
Width                                    : 720 pixels
Height                                   : 304 pixels
Display aspect ratio                     : 2.35:1
Frame rate                               : 25.000 FPS
Color space                              : YUV
Chroma subsampling                       : 4:2:0
Bit depth                                : 8 bits
Scan type                                : Progressive
Compression mode                         : Lossy
Bits/(Pixel*Frame)                       : 0.348
Stream size                              : 1.13 GiB (83%)
Writing library                          : XviD 1.2.1 (UTC 2008-12-04)

Audio
ID                                       : 1
Format                                   : AC-3
Format/Info                              : Audio Coding 3
Mode extension                           : CM (complete main)
Format settings, Endianness              : Big
Codec ID                                 : 2000
Duration                                 : 1 h 25 min
Bit rate mode                            : Constant
Bit rate                                 : 384 kb/s
Channel(s)                               : 2 channels
Channel positions                        : Front: L R
Sampling rate                            : 48.0 kHz
Frame rate                               : 31.250 FPS (1536 spf)
Compression mode                         : Lossy
Stream size                              : 234 MiB (17%)
Alignment                                : Split accross interleaves
Interleave, duration                     : 40  ms (1.00 video frame)
Interleave, preload duration             : 500  ms



pb.wtf



Скачать Окно через торрент http://i85.fastpic.ru/big/2016/0830/d7/3fc506e24dcb72d5bb3d18ecc547cad7.jpg Скачать фильм Окно через торрент бесплантно в хорошем качестве Описание: Девяностые годы. В разваленной больничной палате, где даже окно забито фанерой, к парализованному молодому человеку из-за ... 9.3 10 12
Info! Золотая раздача, скачанное не засчитывается.
Торрент: Зарегистрирован [2016-08-30 06:33] · скачан: 395 раз
Статус: T временная
Размер: 1.37 GB
Как cкачать? Как скачать Окно через торрент | qTorrent

% Раздел Тема Автор DL S | L
Наши сериалы [ 2.22 GB ] Окна на бульвар / Серии: 1-4 из 4 [2020 WEB-DLRip] bober100 Скачать
1 | 0
Наши сериалы [ 2.21 GB ] Окна на бульвар / Серии: 1-4 из 4 [2020 WEB-DLRip-AVC] bober100 Скачать
2 | 0
Наши сериалы [ 2.07 GB ] Окна на бульвар / Серии: 1-4 из 4 [2020 SATRip-AVC] aleksan55 Скачать
2 | 0
Фильмы (WEB-DL 720p, 1080p) [ 2.28 GB ] Проклятый дом / Ведьма в окне / The Witch in the Window [2018 WEB-DL 1080p] bober100 Скачать
3 | 0
Документальные фильмы и телепередачи [ 1.46 GB ] С закрытыми окнами. Честная биография Кирилла Толмацкого [2019 биография документальный WEBRip Русский] shuller Скачать
1 | 0
Фильмы [HD 720p, 1080p] (Хороший звук DUB, MVO) [ 10.85 GB ] Окно спальни / The Bedroom Window [1987 BDRip 1080p by msltel] DUB 3 x DVO msltel Скачать
1 | 0
Фильмы [HD 720p, 1080p] (Хороший звук DUB, MVO) [ 4.27 GB ] Окно спальни / The Bedroom Window [1987 BDRip 720p by msltel] DUB 3 x DVO msltel Скачать
1 | 0

28-11-2019 20:33  

Отключить всю рекламу на сайте

30-08-2016 06:36 Окно Скачать торрент  

На самом деле рейтинг фильма зашкаливает за 7 баллов....фильм понравился,стоит смотретьpb.wtf



30-08-2016 06:41 Окно Скачать торрент  

Спасиб посмотрим, поможем раздать.pb.wtf



30-08-2016 06:46 Окно Скачать торрент  

rayl116rus писал(а):

Спасиб посмотрим, поможем раздать.

pb.wtf



30-08-2016 10:25 Окно Скачать торрент  

довольно хорошие отзывы о фильмеpb.wtf



30-08-2016 11:02 Окно Скачать торрент  

Надо будет позырить) pb.wtf



30-08-2016 14:49 Окно Скачать торрент  

Хороший фильм жизненный люблю такие правда я думал в конце окно будет заколочено или замазано а тут как то просто так.....pb.wtf



30-08-2016 18:05 Окно Скачать торрент  

да кин. прикольный мне тож понравилсяpb.wtf



30-08-2016 18:14 Окно Скачать торрент  

с удовольствием посмотрел, концовка понравиласьpb.wtf



31-08-2016 12:38 Окно Скачать торрент  

Годный фильм.pb.wtf



    Дорогой пользователь! Огромная просьба, поблагодарите релизера, оцените раздачу и оставьте свои комментарий, если Вы скачали Окно через торрент бесплатно! Внесите свою лепту в развитие PiratBit!
    Комментировать посты могут только пользователи прошедшие не сложную регистрацию
    Показать сообщения:    

    Окно через торрент
    Скачать бесплатно Окно
    Окно скачать торрент
    Окно смотреть онлайн
    Cкачать фильм Окно бесплатно
    Окно скачать торрент в хорошем качестве
    Окно смотреть онлайн бесплатно в хорошем качестве


    Вы не можете начинать темы
    Вы не можете отвечать на сообщения
    Вы не можете редактировать свои сообщения
    Вы не можете удалять свои сообщения
    Вы не можете голосовать в опросах
    Вы не можете прикреплять файлы к сообщениям
    Вы можете скачивать файлы