новый адрес
Ссылка на приватное зеркало всего за 1$. Внимание количество ограничено!!!

iTunes

1+1

iTunes

мы

iTunes

1

iTunes

Чернобыль

iTunes

Ральф против интернета

Лицензия

ПШазам

Лицензия

Оно 2

Лицензия

30
pack

Вам бонус

ВАЖНО

!!Акция!!

Alien_RageХит недели

RePack

Resident Evil 21

ИГРА 18+

pack

RePack

jed

!!Акция!!

Alien_Rage

RePack

fifa19

RePack

Assassins Creed: Odyssey

RePack

NEED FOR SPEED™ PAYBACK

3 сезон

9 сезон

Бесстыжие 9 сезон

Все сериалы

все сериалы на PB.wtf

RePack

FAR CRY 5
Ребята, катастрофически не хватает 1900р. для оплаты серверов за Октябрь (всвязи с блокировками трафик упал в 3 раза), 1-2р., выручайте.
  

Звёзды на крыльях (Исаак Шмарук) [1955, CCCP, драма, SATRip от AVP Studio] pb.wtf

Звёзды на крыльях через торрент pb.wtf

Размер: 745 MB | Добавлен: 3 года 2 мес. назад | Торрент скачан:14 раз
Скачать  

30-08-2016 08:27 Звёзды на крыльях Скачать торрент  

Звёзды на крыльях
Страна: СССР
Производство: Киностудия им. А.Довженко

Жанр: драма
Год выпуска: 1955
Продолжительность: 01:16:24

Перевод: Не требуется
Cубтитры: нет
Оригинальная аудиодорожка: русский

Режиссер: Исаак Шмарук

В ролях:
Лев Фричинский, Вячеслав Тихонов, Юрий Боголюбов, Александр Антонов, Валентина Куценко, Лариса Кронберг, Константин Барташевич, Александр Холодков, Юрий Тимошенко...
Полный список актёров

Описание:
Авиаучилище. Будущие офицеры эскадрильи реактивных самолётов заняты практической учёбой. При выполнении учебного задания курсант Коренюк нарушает лётную дисциплину. Лётчик-инструктор, считая Коренюка талантливым курсантом, прощает ему этот проступок. Когда же во время очередного учебного полёта Коренюк пикирует на рыболовецкое судно, вину берёт на себя находящийся в кабине курсант Букреев. Букреева арестовывают на десять суток…

Источник: DVB
Качество видео: SATRip
Формат видео: AVI

Видео: 640x480 (4:3), 25 fps, XviD ~ 1226 kbps avg, 0.160 bit/pixel
Аудио: 48 kHz, MP3 2.0, 128 kbps

Раздача от:
Общее
Полное имя : Zvyozdy.na.krylyah.1955.SATRip-745_[New-team]_by_AVP_Studio.avi
Формат : AVI
Формат/Информация : Audio Video Interleave
Размер файла : 745 Мбайт
Продолжительность : 1 ч. 16 м.
Общий поток : 1364 Кбит/сек
Программа кодирования : VirtualDubMod 1.5.10.3 | www.virtualdub-fr.org || (build 2550/release)
Библиотека кодирования : VirtualDubMod build 2550/release

Видео
Идентификатор : 0
Формат : MPEG-4 Visual
Профиль формата : Advanced Simple@L5
Параметр BVOP формата : 1
Параметр QPel формата : Нет
Параметр GMC формата : Без точки перехода
Параметр матрицы формата : Выборочная
Идентификатор кодека : XVID
Идентификатор кодека/Подсказка : XviD
Продолжительность : 1 ч. 16 м.
Битрейт : 1226 Кбит/сек
Ширина : 640 пикселей
Высота : 480 пикселей
Соотношение сторон : 4:3
Частота кадров : 25,000 кадров/сек
Цветовое пространство : YUV
Субдискретизация насыщенности : 4:2:0
Битовая глубина : 8 бит
Тип развёртки : Прогрессивная
Метод сжатия : С потерями
Бит/(Пиксели*Кадры) : 0.160
Размер потока : 670 Мбайт (90%)
Библиотека кодирования : XviD 1.2.1 (UTC 2008-12-04)

Аудио
Идентификатор : 1
Формат : MPEG Audio
Версия формата : Version 1
Профиль формата : Layer 3
Идентификатор кодека : 55
Идентификатор кодека/Подсказка : MP3
Продолжительность : 1 ч. 16 м.
Вид битрейта : Постоянный
Битрейт : 128 Кбит/сек
Каналы : 2 канала
Частота : 48,0 КГц
Метод сжатия : С потерями
Размер потока : 70,0 Мбайт (9%)
Выравнивание : Соединение по промежуткам
Продолжительность промежутка : 40 мс. (1,00 видеокадр)
Время предзагрузки промежутка : 504 мс.
Библиотека кодирования : LAME3.99r
Настройки программы : -m s -V 4 -q 2 -lowpass 17 -b 128
pb.wtf



Скачать Звёзды на крыльях через торрент http://i83.fastpic.ru/big/2016/0830/e9/5cc4c8061d22ca8b05b9aa0b4b0045e9.png Скачать фильм Звёзды на крыльях через торрент бесплантно в хорошем качестве Описание:Авиаучилище. Будущие офицеры эскадрильи реактивных самолётов заняты практической учёбой. При выполнении учебного задания курсант ... 5 10 1
Info! Золотая раздача, скачанное не засчитывается.
Торрент: Зарегистрирован [2016-08-30 08:27] · скачан: 14 раз
Статус: √ проверено
Размер: 745 MB
Как cкачать? Как скачать Звёзды на крыльях через торрент | qTorrent

% Раздел Тема Автор DL S | L
Кино СССР [ 1.09 GB ] Звёзды на крыльях [1955 CCCP SATRip-AVC от AVP Studio] AVP Studio Скачать
1 | 0
Кино СССР [ 1.09 GB ] Звёзды на крыльях [1955 CCCP SATRip от AVP Studio] AVP Studio Скачать
1 | 0
    Дорогой пользователь! Огромная просьба, поблагодарите релизера, оцените раздачу и оставьте свои комментарий, если Вы скачали Звёзды на крыльях через торрент бесплатно! Внесите свою лепту в развитие PiratBit!
    Комментировать посты могут только пользователи прошедшие не сложную регистрацию
    Показать сообщения:    

    Звёзды на крыльях через торрент
    Скачать бесплатно Звёзды на крыльях
    Звёзды на крыльях скачать торрент
    Звёзды на крыльях смотреть онлайн
    Cкачать фильм Звёзды на крыльях бесплатно
    Звёзды на крыльях скачать торрент в хорошем качестве
    Звёзды на крыльях смотреть онлайн бесплатно в хорошем качестве


    Вы не можете начинать темы
    Вы не можете отвечать на сообщения
    Вы не можете редактировать свои сообщения
    Вы не можете удалять свои сообщения
    Вы не можете голосовать в опросах
    Вы не можете прикреплять файлы к сообщениям
    Вы можете скачивать файлы