Death Stranding+DLC+АВТОАКТИВАЦИЯ

iTunes

iTunes

iTunes

1

iTunes

iTunes

iTunes

iTunes

iTunes

30
pack

$ от Little Big

ВАЖНО

!!Акция!!

Alien_RageХит недели

RePack

Resident Evil 21

ИГРА 18+

pack

RePack

jed

!!Акция!!

Alien_Rage

RePack

fifa19

RePack

Assassins Creed: Odyssey

RePack

NEED FOR SPEED™ PAYBACK

4 сезон

9 сезон

Бесстыжие 9 сезон

Все сериалы

все сериалы на PB.wtf

RePack

FAR CRY 5
  

Земля обетованная / The Land (Стивен Кейпл мл. ) [2016, драма, WEB-DL 720p] MVO pb.wtf

Земля обетованная через торрент pb.wtf

Размер: 3.17 GB | Добавлен: 3 года 10 мес. назад | Торрент скачан:91 раз
Скачать  

30-08-2016 12:13 Земля обетованная Скачать торрент  

Земля обетованная / The Land

Год выпуска: 2016
Страна: США
Жанр: драма
Продолжительность: 01:41:42
Перевод: Любительский (многоголосный закадровый) Студия Пиратского Дубляжа
Режиссер: Стивен Кейпл мл.
В ролях: Хорхе Лендеборг мл. (Cisco), Мойзес Ариас (Junior), Рафи Гаврон (Patty Cake), Эзри Уокер (Boobie), Машин Ган Келли (Slick), Роберт Хантер (Elliot), Мелвин Грегг (Brent), Кристофер Амитрано (Hassan), Надя Симмс (Stacey), Эшли Морган (Janice), Райан Мулькай (Harry), Том Кондилас (Henry Bush Tits)
Описание:
История четверых подростков, которые одним летом решают оставить улицы Кливленда, чтобы начать жить своей мечтой - профессиональным скейтбордингом. Однако нарвавшись на местных наркоторговцев, их братству предстоит настоящее испытание, ведь это лето может стать для них последним.
Рейтинг:

Качество: WEB-DL 720p
Формат: MKV
Видео: AVC, 1280x532 (2.40:1), 4069 kbps, 23,976 fps, 0,249 bpp
Аудио: AC3 / 2.0 / 48 kHz / 384 kbps /

General
Unique ID The.Land.2016.P.WEB-DL.72Op_KOSHARA.mkv
Format : Matroska
Format version : Version 2
File size : 3.17 GiB
Duration : 1 h 41 min
Overall bit rate mode : Constant
Overall bit rate : 4 456 kb/s
Encoded date : UTC 2016-08-16 17:44:03
Writing application : mkvmerge v8.3.0 ('Over the Horizon') 64bit
Writing library : libebml v1.3.1 + libmatroska v1.4.2

Video
ID : 1
Format : AVC
Format/Info : Advanced Video Codec
Format profile : High@L3.1
Format settings, CABAC : Yes
Format settings, ReFrames : 6 frames
Codec ID : V_MPEG4/ISO/AVC
Duration : 1 h 41 min
Bit rate mode : Constant
Bit rate : 4 070 kb/s
Nominal bit rate : 4 400 kb/s
Width : 1 280 pixels
Height : 532 pixels
Display aspect ratio : 2.40:1
Frame rate mode : Constant
Frame rate : 23.976 (24000/1001) FPS
Standard : Component
Color space : YUV
Chroma subsampling : 4:2:0
Bit depth : 8 bits
Scan type : Progressive
Bits/(Pixel*Frame) : 0.249
Stream size : 2.89 GiB (91%)
Default : Yes
Forced : No
Color range : Limited
Color primaries : BT.709
Transfer characteristics : BT.709
Matrix coefficients : BT.709

Audio
ID : 2
Format : AC-3
Format/Info : Audio Coding 3
Mode extension : CM (complete main)
Format settings, Endianness : Big
Codec ID : A_AC3
Duration : 1 h 41 min
Bit rate mode : Constant
Bit rate : 384 kb/s
Channel(s) : 2 channels
Channel positions : Front: L R
Sampling rate : 48.0 kHz
Frame rate : 31.250 FPS (1536 spf)
Compression mode : Lossy
Stream size : 279 MiB (9%)
Default : Yes
Forced : No
Скриншоты:
pb.wtf



Скачать Земля обетованная через торрент http://i1.imageban.ru/out/2016/08/30/aeb493094df57680f89aebce2acdf266.jpg Скачать фильм Земля обетованная через торрент бесплантно в хорошем качестве Описание: История четверых подростков, которые одним летом решают оставить улицы Кливленда, чтобы начать жить своей мечтой - ... 10 10 3
Торрент: Зарегистрирован [2016-08-30 12:13] · скачан: 91 раз
Статус: T временная
Размер: 3.17 GB
Как cкачать? Как скачать Земля обетованная через торрент | qTorrent



Последний раз редактировалось: smaster (2016-08-30 16:16), всего редактировалось 1 раз

28-11-2019 20:33  

Отключить всю рекламу на сайте

30-08-2016 17:22 Земля обетованная Скачать торрент  

Как кинцо?pb.wtf



    Дорогой пользователь! Огромная просьба, поблагодарите релизера, оцените раздачу и оставьте свои комментарий, если Вы скачали Земля обетованная через торрент бесплатно! Внесите свою лепту в развитие PiratBit!
    Комментировать посты могут только пользователи прошедшие не сложную регистрацию
    Показать сообщения:    

    Земля обетованная через торрент
    Скачать бесплатно Земля обетованная
    Земля обетованная скачать торрент
    Земля обетованная смотреть онлайн
    Cкачать фильм Земля обетованная бесплатно
    Земля обетованная скачать торрент в хорошем качестве
    Земля обетованная смотреть онлайн бесплатно в хорошем качестве


    Вы не можете начинать темы
    Вы не можете отвечать на сообщения
    Вы не можете редактировать свои сообщения
    Вы не можете удалять свои сообщения
    Вы не можете голосовать в опросах
    Вы не можете прикреплять файлы к сообщениям
    Вы можете скачивать файлы