Ссылка на приватное зеркало всего за 1$. Внимание количество ограничено!!!

iTunes

iTunes

iTunes

1

iTunes

iTunes

iTunes

iTunes

iTunes

30
pack

$ от Little Big

ВАЖНО

!!Акция!!

Alien_RageХит недели

RePack

Resident Evil 21

ИГРА 18+

pack

RePack

jed

!!Акция!!

Alien_Rage

RePack

fifa19

RePack

Assassins Creed: Odyssey

RePack

NEED FOR SPEED™ PAYBACK

4 сезон

9 сезон

Бесстыжие 9 сезон

Все сериалы

все сериалы на PB.wtf

RePack

FAR CRY 5
  

Любовь не по размеру / Un homme à la hauteur (Лоран Тирар ) [2016, комедия, WEB-DL 720p] DUB [iTunes] pb.wtf

Любовь не по размеру через торрент pb.wtf

Размер: 2.86 GB | Добавлен: 3 года 10 мес. назад | Торрент скачан:206 раз
Скачать  

31-08-2016 04:47 Любовь не по размеру Скачать торрент  

Любовь не по размеру / Un homme à la hauteur

Год выпуска: 2016
Страна: Франция
Жанр: комедия

Продолжительность: 01:34:00
Перевод: Профессиональный (Дубляж) iTunes
Режиссер: Лоран Тирар
В ролях: Жан Дюжарден (Alexandre), Виржини Эфира (Diane Duchêne), Седрик Кан (Bruno Cassoni), Стефани Папаниан (Coralie, l'assistante de Diane et Bruno), Сезар Домбой (Benji), Эдмон Франчи (Monique, la femme de ménage), Мануэлль Гайар (Nicole, la mère de Diane), Бруно Гомила (Philippe, le beau-père de Diane), Камилль Дамур (Serveur Monte Cristo), Франсуа-Доминик Блен (Sébastien, le pilote), Кристиан Валсамидис (L'ami de Diane), Бруно Хослер (Technicien informatique)
Описание:
Потерянный мобильник оборачивается для Дианы знакомством с поистине невероятным человеком по имени Александр. Он умен, неутомим и чертовски обаятелен. У него замечательное чувство юмора и, кажется, нет недостатков. Кроме одного... Его рост - чуть больше метра. Это небольшое препятствие оказывается источником огромных проблем и множества неудобных и смешных ситуаций для Дианы. Но настоящая любовь может победить всё, если, конечно, это очень большая любовь.
Рейтинг:

Качество: WEB-DL 720p
Формат: MKV
Видео: AVC, 1280x534 (2.40:1), 3964 kbps, 25 fps, 0,232 bpp
Аудио: русский / AC3 / 5.1 / 48 kHz / 384 kbps /
Навигация по главам: есть

General
Unique ID L1ub0Bj.He.p0.Pa3mePu.2O16.D.WEB-DL.720p.mkv
Format : Matroska
Format version : Version 2
File size : 2.86 GiB
Duration : 1 h 34 min
Overall bit rate : 4 351 kb/s
Encoded date : UTC 2016-07-04 03:58:45
Writing application : mkvmerge v8.3.0 ('Over the Horizon') 64bit
Writing library : libebml v1.3.1 + libmatroska v1.4.2

Video
ID : 1
Format : AVC
Format/Info : Advanced Video Codec
Format profile : High@L4.1
Format settings, CABAC : Yes
Format settings, ReFrames : 4 frames
Codec ID : V_MPEG4/ISO/AVC
Duration : 1 h 34 min
Bit rate : 3 965 kb/s
Width : 1 280 pixels
Height : 534 pixels
Display aspect ratio : 2.40:1
Frame rate mode : Constant
Frame rate : 25.000 FPS
Color space : YUV
Chroma subsampling : 4:2:0
Bit depth : 8 bits
Scan type : Progressive
Bits/(Pixel*Frame) : 0.232
Stream size : 2.60 GiB (91%)
Default : Yes
Forced : No

Audio
ID : 2
Format : AC-3
Format/Info : Audio Coding 3
Mode extension : CM (complete main)
Format settings, Endianness : Big
Codec ID : A_AC3
Duration : 1 h 34 min
Bit rate mode : Constant
Bit rate : 384 kb/s
Channel(s) : 6 channels
Channel positions : Front: L C R, Side: L R, LFE
Sampling rate : 48.0 kHz
Frame rate : 31.250 FPS (1536 spf)
Compression mode : Lossy
Stream size : 258 MiB (9%)
Title : [DUB] DD 5.1 @ 384 kbps (iTunes)
Language : Russian
Default : Yes
Forced : No

Menu
00:00:00.000 : en:Глава 1
00:06:20.680 : en:Глава 2
00:11:39.000 : en:Глава 3
00:17:38.760 : en:Глава 4
00:23:42.120 : en:Глава 5
00:29:31.360 : en:Глава 6
00:35:27.080 : en:Глава 7
00:40:54.320 : en:Глава 8
00:45:59.320 : en:Глава 9
00:53:04.120 : en:Глава 10
00:59:36.160 : en:Глава 11
01:05:14.440 : en:Глава 12
01:11:09.720 : en:Глава 13
01:16:59.600 : en:Глава 14
01:22:31.920 : en:Глава 15
Скриншоты:
pb.wtf



Скачать Любовь не по размеру через торрент http://i5.imageban.ru/out/2016/08/31/fead2cdfb64db03419430d8a13aa7202.jpg Скачать фильм Любовь не по размеру через торрент бесплантно в хорошем качестве Описание: Потерянный мобильник оборачивается для Дианы знакомством с поистине невероятным человеком по имени Александр. Он умен, неутомим и ... 9.8 10 10
Info! Золотая раздача, скачанное не засчитывается.
Торрент: Зарегистрирован [2016-08-31 04:47] · скачан: 206 раз
Статус: √ проверено
Размер: 2.86 GB
Как cкачать? Как скачать Любовь не по размеру через торрент | qTorrent

% Раздел Тема Автор DL S | L
Фильмы 2016 [DVDrip, WEB-DLRip, HDrip] (DUB, MVO) [ 1.46 GB ] Любовь не по размеру / Un homme à la hauteur [2016 BDRip] - [] Twi7ter Скачать
2 | 0
Релизы по Парсеру [Игры, Сериалы и Фильмы и другое...] [ 3.15 GB ] Любовь не по размеру / Un homme à la hauteur WEB-DL 1080p / Ворон Скачать
1 | 0
Релизы по Парсеру [Игры, Сериалы и Фильмы и другое...] [ 1.45 GB ] Любовь не по размеру / Un homme à la hauteur WEB-DLRip / Ворон Скачать
2 | 0

28-11-2019 20:33  

Отключить всю рекламу на сайте

    Дорогой пользователь! Огромная просьба, поблагодарите релизера, оцените раздачу и оставьте свои комментарий, если Вы скачали Любовь не по размеру через торрент бесплатно! Внесите свою лепту в развитие PiratBit!
    Комментировать посты могут только пользователи прошедшие не сложную регистрацию
    Показать сообщения:    

    Любовь не по размеру через торрент
    Скачать бесплатно Любовь не по размеру
    Любовь не по размеру скачать торрент
    Любовь не по размеру смотреть онлайн
    Cкачать фильм Любовь не по размеру бесплатно
    Любовь не по размеру скачать торрент в хорошем качестве
    Любовь не по размеру смотреть онлайн бесплатно в хорошем качестве


    Вы не можете начинать темы
    Вы не можете отвечать на сообщения
    Вы не можете редактировать свои сообщения
    Вы не можете удалять свои сообщения
    Вы не можете голосовать в опросах
    Вы не можете прикреплять файлы к сообщениям
    Вы можете скачивать файлы