Ссылка на приватное зеркало всего за 1$. Внимание количество ограничено!!!

OK

1+1

iTunes

мы

OK

1

WEB-DLRip

Джокер

Пифагор

Ведьмак / The Witcher сериал

Лицензия

ПШазам

ОК

Оно 2

iTunes

30
pack

Вам бонус

ВАЖНО

!!Акция!!

Alien_RageХит недели

RePack

Resident Evil 21

ИГРА 18+

pack

RePack

jed

!!Акция!!

Alien_Rage

RePack

fifa19

RePack

Assassins Creed: Odyssey

RePack

NEED FOR SPEED™ PAYBACK

4 сезон

9 сезон

Бесстыжие 9 сезон

Все сериалы

все сериалы на PB.wtf

RePack

FAR CRY 5
  

Милый Ханс, дорогой Петр / Milyy Khans, dorogoy Pyotr (Александр Миндадзе ) [2015, драма, WEB-DLRip] VO pb.wtf

Милый Ханс, дорогой Петр через торрент pb.wtf

Размер: 1.46 GB | Добавлен: 3 года 4 мес. назад | Торрент скачан:54 раза
Скачать  

31-08-2016 05:21 Милый Ханс, дорогой Петр Скачать торрент  

Милый Ханс, дорогой Петр / Milyy Khans, dorogoy Pyotr

Год выпуска: 2015
Страна: Россия, Великобритания, Германия
Жанр: драма

Продолжительность: 01:59:48
Перевод: Профессиональный одноголосый, закадровый
Режиссер: Александр Миндадзе
В ролях: Якоб Диль (Ханс), Биргит Минихмайр (Грета), Марк Вашке (Отто), Марк Хоземанн (Вилли), Роза Хайруллина (Нина), Андрюс Даряла (Петр), Евгений Сармонт (переводчик), Ангелина Римашевская (девочка), Анна Скиданова (подруга Зойка), Светлана Косолапова (Наташа, жена Петра), Себастьян Антон (Томас)
Описание:
Накануне войны немецкие инженеры работают на советском заводе над производством высокоточной оптики. Судьба и благополучие каждого из них зависит от успеха дела, но пока результата нет - ошибки следуют одна за другой. На фоне производственных неудач и приближения трагической эпохи раскрываются личные проблемы героев и их непростые взаимоотношения. Во время ответственной варки у инженера Ханса случается нервный срыв, приведший к тяжелым последствиям: взрыву, смертям и расследованию советских спецслужб. Свидетелем его проступка становится русский рабочий Пётр. Ханс и Пётр, случайно ставший причастным к преступлению, оказываются в зависимости друг от друга, повязанные страхом разоблачения. Однако взаимное недоверие парадоксальным образом оборачивается духовной близостью. Когда Петр с женой и детьми тайно бежит из города, гонимый страхом расстрела, немецкий инженер вместо облегчения испытывает чувство утраты. Вскоре Ханс возвращается в те же места, но уже в офицерской форме, смотрит в бинокль сквозь созданные им же линзы, обозревая окрестности: а была ли недавняя мирная жизнь?
Рейтинг:

Качество: WEB-DLRip
Формат: AVI
Видео: XviD, 720x304 (2.35:1), 1539 kbps, 25 fps, 0,281 bpp
Аудио: AC3 / 2.0 / 48 kHz / 192 kbps /

General
Complete name Mylii.Gans.dorogoi.Petr.2O15.P1.WEB-DLRip.14OOMB.avi
Format : AVI
Format/Info : Audio Video Interleave
File size : 1.46 GiB
Duration : 1 h 59 min
Overall bit rate : 1 742 kb/s
Writing application : VirtualDubMod 1.5.10.2 (build 2540/release)
Writing library : VirtualDubMod build 2540/release

Video
ID : 0
Format : MPEG-4 Visual
Format profile : Advanced Simple@L5
Format settings, BVOP : 2
Format settings, QPel : No
Format settings, GMC : No warppoints
Format settings, Matrix : Custom
Codec ID : XVID
Codec ID/Hint : XviD
Duration : 1 h 59 min
Bit rate : 1 540 kb/s
Width : 720 pixels
Height : 304 pixels
Display aspect ratio : 2.35:1
Frame rate : 25.000 FPS
Color space : YUV
Chroma subsampling : 4:2:0
Bit depth : 8 bits
Scan type : Progressive
Compression mode : Lossy
Bits/(Pixel*Frame) : 0.281
Stream size : 1.29 GiB (88%)
Writing library : XviD 1.2.1 (UTC 2008-12-04)

Audio
ID : 1
Format : AC-3
Format/Info : Audio Coding 3
Mode extension : CM (complete main)
Format settings, Endianness : Big
Codec ID : 2000
Duration : 1 h 59 min
Bit rate mode : Constant
Bit rate : 192 kb/s
Channel(s) : 2 channels
Channel positions : Front: L R
Sampling rate : 48.0 kHz
Frame rate : 31.250 FPS (1536 spf)
Compression mode : Lossy
Stream size : 165 MiB (11%)
Alignment : Split accross interleaves
Interleave, duration : 40 ms (1.00 video frame)
Interleave, preload duration : 500 ms
Скриншоты:
pb.wtf



Скачать Милый Ханс, дорогой Петр через торрент http://i2.imageban.ru/out/2016/08/31/7ca70de3a75c82edff262d2b6f428e44.jpg Скачать фильм Милый Ханс, дорогой Петр через торрент бесплантно в хорошем качестве Описание: Накануне войны немецкие инженеры работают на советском заводе над м высокоточной оптики. Судьба и благополучие ... 7.8 10 4
Торрент: Зарегистрирован [2016-08-31 05:21] · скачан: 54 раз
Статус: T временная
Размер: 1.46 GB
Как cкачать? Как скачать Милый Ханс, дорогой Петр через торрент | qTorrent

28-11-2019 20:33  

Отключить всю рекламу на сайте

31-08-2016 08:27 Милый Ханс, дорогой Петр Скачать торрент  

так себеpb.wtf



09-09-2016 18:13 Милый Ханс, дорогой Петр Скачать торрент  

Цитата:

Россия, Великобритания, Германия

Опять какую-нибудь гадость про нашу страну сняли.pb.wtf



14-09-2016 13:41 Милый Ханс, дорогой Петр Скачать торрент  

I/O, почти угадал)pb.wtf



    Дорогой пользователь! Огромная просьба, поблагодарите релизера, оцените раздачу и оставьте свои комментарий, если Вы скачали Милый Ханс, дорогой Петр через торрент бесплатно! Внесите свою лепту в развитие PiratBit!
    Комментировать посты могут только пользователи прошедшие не сложную регистрацию
    Показать сообщения:    

    Милый Ханс, дорогой Петр через торрент
    Скачать бесплатно Милый Ханс, дорогой Петр
    Милый Ханс, дорогой Петр скачать торрент
    Милый Ханс, дорогой Петр смотреть онлайн
    Cкачать фильм Милый Ханс, дорогой Петр бесплатно
    Милый Ханс, дорогой Петр скачать торрент в хорошем качестве
    Милый Ханс, дорогой Петр смотреть онлайн бесплатно в хорошем качестве


    Вы не можете начинать темы
    Вы не можете отвечать на сообщения
    Вы не можете редактировать свои сообщения
    Вы не можете удалять свои сообщения
    Вы не можете голосовать в опросах
    Вы не можете прикреплять файлы к сообщениям
    Вы можете скачивать файлы