Ссылка на приватное зеркало нашего сайта всего за 1$. Внимание количество ограничено!!!

2 сезон

iTunes

1 сезон

1

2 сезон

2 сезон

iTunes

1 сезон

RePack

30

Новинка

ВАЖНО

ИГРА 18+

pack

RePack

MK11
pack

Забери бонус

RePack

jed

!!Акция!!

Alien_Rage

RePack

fifa19

RePack

Assassins Creed: Odyssey

RePack

NEED FOR SPEED™ PAYBACK

4 сезон

9 сезон

Бесстыжие 9 сезон

Все сериалы

все сериалы на PB.wtf

RePack

FAR CRY 5
  

Дюна / Dune (Джон Харрисон) / Серии 1-3 из 3 [2000 г., фантастика, фэнтези, драма, приключения, BDRip] MVO pb.wtf

Дюна через торрент pb.wtf

Раздают: 2 [ 0 KB/s ]
Размер: 4.35 GB | Добавлен: 4 года 2 мес. назад | Торрент скачан:394 раза
Скачать  

31-08-2016 05:51 Дюна Скачать торрент  

Дюна / Dune
Год выпуска: 2000
Страна: США, Германия, Канада, Италия
Жанр: фантастика, фэнтези, драма, приключения
Продолжительность: 3 х ~ 01:35:30
Перевод: Профессиональный (многоголосый)

Режиссер: Джон Харрисон
Продюссер: Рола Бауэр, Митчелл Галин, Тим Халкин
Сценарий: Джон Харрисон, Фрэнк Герберт

Бюджет: $20 000 000
Премьера в мире: 3 декабря 2000



В ролях: Уильям Хёрт, Алек Ньюман, Саския Ривз, П.Х. Мориарти, Иэн МакНис, Мэтт Кислар, Ласло И. Киш, Джанкарло Джаннини, Джули Кокс, Уве Оксенкнехт, Джеймс Уотсон, Роберт Расселл, Лаура Бертон, Жан Унгер, Мирослав Таборски, Барбора Кодетова, Карел Добры, Сюзанна Гейслерова, Джейкоб Шварц, Клотильда Ле Гранд, Филип Ленковски

Описание: Арракис… Дюна… Бесплодная пустыня Империи и самая ценная планета в космосе. Поскольку здесь и только здесь была открыта специя. Без нее в Империи не будет торговли. Не будет цивилизации. Арракис… Дюна… родина специи. Величайшее сокровище Вселенной. Тот кто владеет ею, владеет судьбой.

Эпизод 1: В огромной империи могущественная гильдия контролирует свою монополию на передвижение по космосу. Это возможно только с помощью "пряности", редкой субстанции, выращиваемой гигантскими песчаными червями в жарких пустынях Арракиса. Благородный Герцог и враждебный Барон начинают бескомпромиссное сражение за царственный Арракис.
Эпизод 2: Отгремели битвы за Арракис, и во главе песчанной провинции встал племянник кровавого Барона, который сразу решает устанавливать свои порядки с помощью железа. Изгнанный Герцог становится народным вождем, и, пользуясь своими невероятными способностями и благородным происхождением, возглавляет новый крестовый поход против черных сил.
Эпизод 3: Черная туча космических кораблей прибыла на пустынную планету Арракис. Империя решила нанести удар по Герцогу и возглавляемым им войскам, чтобы заполучить полный контроль над редкой субстанцией. Герцог должен пройти последние испытания и раскрыть тайные карты своей судьбы.

Качество: BDRip
Формат: AVI
Видео кодек: XviD
Аудио кодек: AC3
Видео: XviD, ~ 1700 Кбит/с, 720x400, 24 кадр/с
Аудио: АС3, 6 ch, 448 Кбит/с, 48 kHz
Релиз от: Koenig
Общее
Полное имя : Dune.2000.BDRip\Dune.2000.P2.BDRip.avi
Формат : AVI
Формат/Информация : Audio Video Interleave
Размер файла : 1,45 Гбайт
Продолжительность : 1 ч. 36 м.
Общий поток : 2151 Кбит/сек
Программа кодирования : VirtualDubMod 1.5.10.2 (build 2540/release)
Библиотека кодирования : VirtualDubMod build 2540/release

Видео
Идентификатор : 0
Формат : MPEG-4 Visual
Профиль формата : Advanced Simple@L5
Параметр BVOP формата : 1
Параметр QPel формата : Нет
Параметр GMC формата : Без точки перехода
Параметр матрицы формата : Default (MPEG)
Идентификатор кодека : XVID
Идентификатор кодека/Подсказка : XviD
Продолжительность : 1 ч. 36 м.
Битрейт : 1694 Кбит/сек
Ширина : 720 пикселей
Высота : 400 пикселей
Соотношение сторон : 16:9
Частота кадров : 24,000 кадра/сек
Цветовое пространство : YUV
Субдискретизация насыщенности : 4:2:0
Битовая глубина : 8 бит
Тип развёртки : Прогрессивная
Метод сжатия : С потерями
Бит/(Пиксели*Кадры) : 0.245
Размер потока : 1,14 Гбайт (79%)
Библиотека кодирования : XviD 1.2.0.dev47 (UTC 2006-11-01)

Аудио
Идентификатор : 1
Формат : AC-3
Формат/Информация : Audio Coding 3
Расширение режима : CM (complete main)
Параметр Endianness формата : Big
Идентификатор кодека : 2000
Продолжительность : 1 ч. 36 м.
Вид битрейта : Постоянный
Битрейт : 448 Кбит/сек
Каналы : 6 каналов
Расположение каналов : Front: L C R, Side: L R, LFE
Частота : 48,0 КГц
Частота кадров : 31,250 кадров/сек (1536 spf)
Метод сжатия : С потерями
Размер потока : 309 Мбайт (21%)
Выравнивание : Разделение по промежуткам
Продолжительность промежутка : 42 мс. (1,00 видеокадр)
Время предзагрузки промежутка : 500 мс.

Дюна скачать торрент

pb.wtf



Скачать Дюна через торрент http://pic1.kartinco.top/images/10/qionv.jpg Скачать фильм Дюна через торрент бесплантно в хорошем качестве Описание: Арракис… Дюна… Бесплодная пустыня Империи и самая ценная планета в космосе. Поскольку здесь и только здесь была открыта специя. ... 10 10 15
Info! Золотая раздача, скачанное не засчитывается.
Торрент: Зарегистрирован [2016-08-31 05:51] · скачан: 394 раз
Статус: √ проверено
Размер: 4.35 GB
Как cкачать? Как скачать Дюна через торрент | qTorrent

28-11-2019 20:33  

Отключить всю рекламу на сайте

31-08-2016 06:53 Дюна Скачать торрент  

Хорошее кино) +золото)pb.wtf



31-08-2016 07:04 Дюна Скачать торрент  

Лол, специя. Кубик Магги что ли?pb.wtf



31-08-2016 15:58 Дюна Скачать торрент  

DeeMan писал(а):

Лол, специя. Кубик Магги что ли?

Spice переводится как специяpb.wtf



01-09-2016 11:16 Дюна Скачать торрент  

Игра на SEGA было отличная.pb.wtf



01-09-2016 22:47 Дюна Скачать торрент  

YurikSan писал(а):

DeeMan писал(а):

Лол, специя. Кубик Магги что ли?

Spice переводится как специя

или спайс или пряность или меланж...
зависит от переводаpb.wtf



    Дорогой пользователь! Огромная просьба, поблагодарите релизера, оцените раздачу и оставьте свои комментарий, если Вы скачали Дюна через торрент бесплатно! Внесите свою лепту в развитие PiratBit!
    Комментировать посты могут только пользователи прошедшие не сложную регистрацию
    Показать сообщения:    

    Дюна через торрент
    Скачать бесплатно Дюна
    Дюна скачать торрент
    Дюна смотреть онлайн
    Cкачать фильм Дюна бесплатно
    Дюна скачать торрент в хорошем качестве
    Дюна смотреть онлайн бесплатно в хорошем качестве


    Вы не можете начинать темы
    Вы не можете отвечать на сообщения
    Вы не можете редактировать свои сообщения
    Вы не можете удалять свои сообщения
    Вы не можете голосовать в опросах
    Вы не можете прикреплять файлы к сообщениям
    Вы можете скачивать файлы