новый адрес
Ссылка на приватное зеркало всего за 1$. Внимание количество ограничено!!!

iTunes

1+1

iTunes

мы

WEB-DL

1

iTunes

Чернобыль

iTunes

Ральф против интернета

Лицензия

ПШазам

Лицензия

Оно 2

Лицензия

30
pack

Вам бонус

ВАЖНО

!!Акция!!

Alien_RageХит недели

RePack

Resident Evil 21

ИГРА 18+

pack

RePack

jed

!!Акция!!

Alien_Rage

RePack

fifa19

RePack

Assassins Creed: Odyssey

RePack

NEED FOR SPEED™ PAYBACK

3 сезон

9 сезон

Бесстыжие 9 сезон

Все сериалы

все сериалы на PB.wtf

RePack

FAR CRY 5
Ребята, катастрофически не хватает 1900р. для оплаты серверов за Октябрь (всвязи с блокировками трафик упал в 3 раза), 1-2р., выручайте.
  

Весна на Заречной улице (Марлен Хуциев, Феликс Миронер) [1956, СССР, мелодрама, HDTVRip от AVP Studio] [цветная версия] pb.wtf

Весна на Заречной улице через торрент pb.wtf

Размер: 1.09 GB | Добавлен: 3 года 3 мес. назад | Торрент скачан:58 раз
Скачать  

31-08-2016 08:18 Весна на Заречной улице Скачать торрент  

Весна на Заречной улице
Год выпуска: 1956
Страна: СССР
Студии: Одесская киностудия

Жанр: мелодрама
Продолжительность: 01:30:04
Субтитры: нет

Режиссер: Марлен Хуциев, Феликс Миронер

В ролях:

Нина Иванова, Николай Рыбников, Владимир Гуляев, Валентина Пугачёва, Геннадий Юхтин, Римма Шорохова, Николай Ключнев, Марина Гаврилко, Юрий Белов, Валентин Брылеев...
Полный список актёров

Описание:
История любви юной учительницы школы рабочей молодежи и ее ученика - одна из самых популярных отечественных мелодрам. Герой фильма, парень лихой и самоуверенный, лучший сталевар завода, не привык к отказам женщин. и вдруг его домогательства получают отпор!.. Поначалу он пытается играть в безразличие. Но проходит время - и он вдруг понимает, что к нему впервые пришло настоящее, глубокое чувство.

Исходник: HDTV
Тип релиза:HDTVRip
Контейнер: AVI

Видео: 704x384 (1,85:1), 25,000 кадров/сек, XviD ~ 1529 kbps avg, 0.226 bit/pixel
Аудио: 48 kHz, Dolby Digital AC3 2.0, 192 kbps

Раздача от:
Общее
Полное имя : Vesna.na.Zarechnoy.ulice.1956.HDTVRip_[New-team]_by_AVP_Studio.avi
Формат : AVI
Формат/Информация : Audio Video Interleave
Размер файла : 1,09 Гбайт
Продолжительность : 1 ч. 30 м.
Общий поток : 1731 Кбит/сек
Программа кодирования : VirtualDubMod 1.5.10.3 | www.virtualdub-fr.org || (build 2550/release)
Библиотека кодирования : VirtualDubMod build 2550/release

Видео
Идентификатор : 0
Формат : MPEG-4 Visual
Профиль формата : Advanced Simple@L5
Параметр BVOP формата : 1
Параметр QPel формата : Нет
Параметр GMC формата : Без точки перехода
Параметр матрицы формата : Выборочная
Идентификатор кодека : XVID
Идентификатор кодека/Подсказка : XviD
Продолжительность : 1 ч. 30 м.
Битрейт : 1529 Кбит/сек
Ширина : 704 пикселя
Высота : 384 пикселя
Соотношение сторон : 1,85:1
Частота кадров : 25,000 кадров/сек
Цветовое пространство : YUV
Субдискретизация насыщенности : 4:2:0
Битовая глубина : 8 бит
Тип развёртки : Прогрессивная
Метод сжатия : С потерями
Бит/(Пиксели*Кадры) : 0.226
Размер потока : 985 Мбайт (88%)
Библиотека кодирования : XviD 1.2.1 (UTC 2008-12-04)

Аудио
Идентификатор : 1
Формат : AC-3
Формат/Информация : Audio Coding 3
Расширение режима : CM (complete main)
Параметр Endianness формата : Big
Идентификатор кодека : 2000
Продолжительность : 1 ч. 30 м.
Вид битрейта : Постоянный
Битрейт : 192 Кбит/сек
Каналы : 2 канала
Расположение каналов : Front: L R
Частота : 48,0 КГц
Частота кадров : 31,250 кадров/сек (1536 spf)
Метод сжатия : С потерями
Размер потока : 124 Мбайт (11%)
Выравнивание : Разделение по промежуткам
Продолжительность промежутка : 40 мс. (1,00 видеокадр)
Время предзагрузки промежутка : 500 мс
pb.wtf



Скачать Весна на Заречной улице через торрент http://s019.radikal.ru/i637/1608/bc/d13aae8ef841.png Скачать фильм Весна на Заречной улице через торрент бесплантно в хорошем качестве Описание: История любви юной учительницы школы рабочей молодежи и ее ученика - одна из самых популярных отечественных мелодрам. Герой ... 10 10 1
Info! Золотая раздача, скачанное не засчитывается.
Торрент: Зарегистрирован [2016-08-31 08:18] · скачан: 58 раз
Статус: √ проверено
Размер: 1.09 GB
Как cкачать? Как скачать Весна на Заречной улице через торрент | qTorrent

% Раздел Тема Автор DL S | L
Наши фильмы (HD, WEB-DL 720p, 1080p) [ 7.53 GB ] Весна на Заречной улице [1956 Мелодрамма BDRip-HEVC 1080p] ADVOKAT69 Скачать
1 | 0
Кино СССР [ 7.95 GB ] Весна на Заречной улице [1956 СССР BDRip 1080p от AVP Studio] [цветная версия] AVP Studio Скачать
1 | 0
Кино СССР [ 2.91 GB ] Весна на Заречной улице [1956 СССР BDRip 720p от AVP Studio] [цветная версия] AVP Studio Скачать
1 | 0
Наши фильмы (Blu-ray, BD-Remux, HDDVD) [ 40.88 GB ] Весна на Заречной улице [1956 Мело Blu-ray 1080p] bober100 Скачать
1 | 0
Кино СССР [ 1.46 GB ] Весна на Заречной улице [1956 СССР HDTVRip-AVC от AVP Studio] [цветная версия] AVP Studio Скачать
1 | 0
Кино СССР [ 745 MB ] Весна на Заречной улице [1956 СССР HDTVRip от AVP Studio] [цветная версия] AVP Studio Скачать
1 | 0
Кино СССР [ 1.46 GB ] Весна на Заречной улице [1956 Мело SATRip - AVC] Цветная версия Первого Канала tserkovnye Скачать
1 | 0


Последний раз редактировалось: AVP Studio (2018-09-07 12:05), всего редактировалось 1 раз

28-11-2019 20:33  

Отключить всю рекламу на сайте

18-09-2016 08:27 Весна на Заречной улице Скачать торрент  

Спасибо. Очень нравится фильм.pb.wtf



    Дорогой пользователь! Огромная просьба, поблагодарите релизера, оцените раздачу и оставьте свои комментарий, если Вы скачали Весна на Заречной улице через торрент бесплатно! Внесите свою лепту в развитие PiratBit!
    Комментировать посты могут только пользователи прошедшие не сложную регистрацию
    Показать сообщения:    

    Весна на Заречной улице через торрент
    Скачать бесплатно Весна на Заречной улице
    Весна на Заречной улице скачать торрент
    Весна на Заречной улице смотреть онлайн
    Cкачать фильм Весна на Заречной улице бесплатно
    Весна на Заречной улице скачать торрент в хорошем качестве
    Весна на Заречной улице смотреть онлайн бесплатно в хорошем качестве


    Вы не можете начинать темы
    Вы не можете отвечать на сообщения
    Вы не можете редактировать свои сообщения
    Вы не можете удалять свои сообщения
    Вы не можете голосовать в опросах
    Вы не можете прикреплять файлы к сообщениям
    Вы можете скачивать файлы