>

7.4

iTunes

7.4

2 сезон

9.4

1 сезон

1

7.4

2 сезон

7.2

iTunes

6.0

MVO

13

6.1

iTunes

8.3

Пиратка

30

ULTIMATE

pack

9.9

Лицензия

ВАЖНО

ИГРА 18+

pack

7.3

RePack

MK11

7.7

RePack

jed

7.8

RePack

fifa19

8.5

RePack

RDR2

RePack

NEED FOR SPEED™ PAYBACK

1 сезон

9 сезон

Бесстыжие 9 сезон

Все сериалы

все сериалы на PB.wtf

RePack

FAR CRY 5

Anonymous, доброе утро, мы катастрофически не успеваем собрать деньги на оплату серверов, помогите нам пожалуйста 5,10,15р., для нас важна любая помощь . В качестве благодарности мы отключим Вам всю рекламу на сайте (укажите свой ник в строку Ваше имя)!

×
  
Magnet ссылка

Страдание / The Suffering (Роб Хэмилтон ) [2016, ужасы, триллер, детектив, HDRip, Любительский (одноголосый) Xixidok pb.wtf

Страдание через торрент pb.wtf

Размер: 1.45 GB | Добавлен: 5 лет 4 мес. назад | Торрент скачан:148 раз
Смотреть онлайн Страдание | Скачать    Ребята, помогите собрать деньги на оплату серверов!!!

31-08-2016 10:40 Страдание Скачать торрент  

Страдание / The Suffering

Год выпуска: 2016
Страна: США
Жанр: ужасы, триллер, детектив
Продолжительность: 01:45:29
Субтитры: Внешние,(Eng)
Перевод: Любительский (одноголосый) (Xixidok)
Режиссер: Роб Хэмилтон
В ролях: Реген Уилсон (Driver), Nick Apostolides (Henry Dawles), Элизабет Део (Rebecca Dawles), Чад Эрик Смит (Ahmad), Карл Стивенс (Rail Thin Man), Лиз Кристмас (Selena), Фил Амико (Mr. Remiel), Кина Ги (Nurse), Тимо Гулд (Creature 2), Рид Пелтье (Child), Ли Хэмилтон (Mrs. Gates), Chappy Gould (Creature 1)
Описание:
Главный герой оказывается на сельской ферме, где попадает в смертельно опасную ловушку. Выбраться живым из той истории, в которую угодил главный герой, будет крайне непросто. Он должен будет сохранить здравый ум и противостоять таинственному хранителю этого зловещего места, населенного мерзкими существами.
Рейтинг:

http://www.imdb.com/title/tt3220100/
Присутствует не значительная реклама!!!
Качество: HDRip
Формат: AVI
Видео: xvid, 720x304 (2.35:1), 1568 kbps, 23,976 fps, 0,299 bpp
Аудио №1: AC3 / 2.0 / 44 kHz / 192 kbps / 16 bit (RUS)
Аудио №2: AC3 / 2.0 / 48 kHz / 192 kbps / 16 bit (ENG)

Код:

General
Complete name                            : E:\The Suffering (2016) HDRip\The Suffering (2016) HDRip.avi
Format                                   : AVI
Format/Info                              : Audio Video Interleave
Format profile                           : OpenDML
File size                                : 1.45 GiB
Duration                                 : 1 h 45 min
Overall bit rate                         : 1 970 kb/s
Writing application                      : XviD4PSP 6.0 / 54.29.105

Video
ID                                       : 0
Format                                   : xvid
Codec ID                                 : xvid
Duration                                 : 1 h 45 min
Bit rate                                 : 1 568 kb/s
Width                                    : 720 pixels
Height                                   : 304 pixels
Display aspect ratio                     : 2.35:1
Frame rate                               : 23.976 FPS
Scan type                                : Progressive
Bits/(Pixel*Frame)                       : 0.299
Stream size                              : 1.16 GiB (80%)

Audio #1
ID                                       : 1
Format                                   : AC-3
Format/Info                              : Audio Coding 3
Mode extension                           : CM (complete main)
Format settings, Endianness              : Big
Codec ID                                 : 2000
Duration                                 : 1 h 45 min
Bit rate mode                            : Constant
Bit rate                                 : 192 kb/s
Channel(s)                               : 2 channels
Channel positions                        : Front: L R
Sampling rate                            : 44.1 kHz
Frame rate                               : 28.711 FPS (1536 spf)
Bit depth                                : 16 bits
Compression mode                         : Lossy
Stream size                              : 145 MiB (10%)
Alignment                                : Aligned on interleaves
Interleave, duration                     : 35  ms (0.84 video frame)

Audio #2
ID                                       : 2
Format                                   : AC-3
Format/Info                              : Audio Coding 3
Mode extension                           : CM (complete main)
Format settings, Endianness              : Big
Codec ID                                 : 2000
Duration                                 : 1 h 45 min
Bit rate mode                            : Constant
Bit rate                                 : 192 kb/s
Channel(s)                               : 2 channels
Channel positions                        : Front: L R
Sampling rate                            : 48.0 kHz
Frame rate                               : 31.250 FPS (1536 spf)
Bit depth                                : 16 bits
Compression mode                         : Lossy
Stream size                              : 145 MiB (10%)
Alignment                                : Aligned on interleaves
Interleave, duration                     : 32  ms (0.77 video frame)



pb.wtf



Скачать Страдание через торрент http://i85.fastpic.ru/big/2016/0831/2f/af8a7eef648b0ea79b34a47a74b1e32f.jpg Скачать, смотреть онлайн Страдание бесплантно в хорошем качестве Описание: Главный герой оказывается на сельской ферме, где попадает в смертельно опасную ловушку. Выбраться живым из той истории, в которую ... 7.3 10 6
Торрент: Зарегистрирован [2016-08-31 10:40] · скачан: 148 раз
Статус: T временная
Размер: 1.45 GB
Как cкачать? Как скачать Страдание через торрент | UTorrent



Последний раз редактировалось: sanekbest1 (2016-08-31 11:13), всего редактировалось 1 раз

28-11-2019 20:33  

Отключить всю рекламу на сайте

31-08-2016 12:26 Страдание Скачать торрент  

я думал по игре фильм запилили pb.wtf



31-08-2016 12:29 Страдание Скачать торрент  

Med писал(а):

я думал по игре фильм запилили

только в игре название Тюрьма это АДpb.wtf



30-09-2018 06:54 Страдание Скачать торрент  

сильный фильм.смотрел в переводе от колобка.pb.wtf



    Дорогой пользователь! Огромная просьба, поблагодарите релизера, оцените раздачу и оставьте свои комментарий, если Вы скачали Страдание через торрент бесплатно!
    Комментировать посты могут только пользователи прошедшие не сложную регистрацию
    Показать сообщения:    

    Страдание через торрент
    Скачать бесплатно Страдание
    Страдание скачать торрент
    Страдание смотреть онлайн
    Cкачать фильм Страдание бесплатно
    Страдание скачать торрент в хорошем качестве
    Страдание смотреть онлайн бесплатно в хорошем качестве


    Вы не можете начинать темы
    Вы не можете отвечать на сообщения
    Вы не можете редактировать свои сообщения
    Вы не можете удалять свои сообщения
    Вы не можете голосовать в опросах
    Вы не можете прикреплять файлы к сообщениям
    Вы можете скачивать файлы