Аватар: Путь воды

Дубляж

смотреть онлайн / скачать торрент Гран туризмо

Дубляж

смотреть онлайн / скачать торрент Кентавр

Лицензия

Активация Mortal Kombat 1

Premium

Активация Lies of P

Deluxe

Активация Resident evil 4 remake+DLC Separate Ways

Игра+DLC

смотреть онлайн / скачать торрент Два, три, демон, приди!

MVO

смотреть онлайн / скачать торрент Форсаж 10

Лицензия

смотреть онлайн / скачать торрент Ведьмак / The Witcher / Сезон: 3

3 сезон

смотреть онлайн / скачать торрент Стражи Галактики. Часть 3

Дубляж

Рекомендуем

Рекомендуем

ВАЖНО

ВАЖНО

30

Лицензия

ARMORED CORE™ VI FIRES OF RUBICON™

Steam-Rip

jed

RePack

PAYDAY 3

Пиратка

RDR2

RePack

Hogwarts Legacy

Steam-Rip

смотреть онлайн / скачать торрент Захваченный

Невафильм

смотреть онлайн / скачать торрент Острые козырьки 6 сезон

6 сезон

FAR CRY 6

RePack

смотреть онлайн / скачать торрент Доктор Стрэндж

Лицензия

скачать торрент Dead Island™ 2

EGS-Rip

скачать торрент The Quarry

Steam-Rip

смотреть онлайн / скачать торрент Мэверик

Лицензия

  

Книга мертвых / Necronomicon (Кристоф Ганс , Сюскэ Канэко , Брайан Юзна ) [1993, ужасы, HDRip, Авторский (одноголосый)(Гаврилов)]

Книга мертвых через торрент pb.wtf

Размер: 1.46 GB | Добавлен: 7 лет 1 мес. назад | Торрент скачан:27 раз
STARFIELD активация

2016-08-31 16:03 Книга мертвых Скачать торрент  

Книга мертвых / Necronomicon

Год выпуска: 1993
Страна: Франция, США
Жанр: ужасы

Продолжительность: 01:36:41
Перевод: Авторский (Гаврилов)
Режиссер: Кристоф Ганс , Сюскэ Канэко , Брайан Юзна
В ролях: Джеффри Комбс (H.P. Lovecraft (wraparound)), Тони Азито (Librarian (wraparound)), Хуан Фернандес (Attendant (wraparound)), Брайан Юзна (Cabbie (wraparound)), Брюс Пэйн (Edward De Lapoer (part 1)), Белинда Бауэр (Nancy Gallmore (part 1)), Ричард Линч (Jethro De Lapoer (part 1)), Мария Форд (Clara (part 1)), Питер Ясенский (Jethro's Son (part 1)), Денис Д. Льюис (Emma De Lapoer (part 1)), Уильям Джесс Расселл (Doctor (part 1)), Владимир Кулих (Villager (part 1))
Описание:
В поисках вдохновения Говард Филлипс Лавкрафт (классик литературы мистики и ужасов) отправляется в зловещее книгохранилище, где находится Некрономикон - легендарная книга мертвых.
Рейтинг:

MPAA: R - Лицам до 17 лет обязательно присутствие взрослого
Качество: HDRip
Формат: AVI
Видео: DivX 5, 720x384 (1.85:1), 1963 kbps, 23,976 fps, 0,296 bpp
Аудио: AC3 / 2.0 / 48 kHz / 192 kbps /

Код:

General
Complete name                            : E:\necronomicon.1993.DVDRip.avi
Format                                   : AVI
Format/Info                              : Audio Video Interleave
File size                                : 1.46 GiB
Duration                                 : 1 h 36 min
Overall bit rate                         : 2 165 kb/s
Writing application                      : VirtualDubMod 1.5.10.3 | www.virtualdub-fr.org || (build 2550/release)
Writing library                          : VirtualDubMod build 2550/release

Video
ID                                       : 0
Format                                   : MPEG-4 Visual
Format profile                           : Advanced Simple@L5
Format settings, BVOP                    : 1
Format settings, QPel                    : No
Format settings, GMC                     : No warppoints
Format settings, Matrix                  : Default (MPEG)
Codec ID                                 : DX50
Codec ID/Hint                            : DivX 5
Duration                                 : 1 h 36 min
Bit rate                                 : 1 963 kb/s
Width                                    : 720 pixels
Height                                   : 384 pixels
Display aspect ratio                     : 1.85:1
Frame rate                               : 23.976 (24000/1001) FPS
Color space                              : YUV
Chroma subsampling                       : 4:2:0
Bit depth                                : 8 bits
Scan type                                : Progressive
Compression mode                         : Lossy
Bits/(Pixel*Frame)                       : 0.296
Stream size                              : 1.33 GiB (91%)
Writing library                          : XviD 1.2.1 (UTC 2008-12-04)

Audio
ID                                       : 1
Format                                   : AC-3
Format/Info                              : Audio Coding 3
Mode extension                           : CM (complete main)
Format settings, Endianness              : Big
Codec ID                                 : 2000
Duration                                 : 1 h 36 min
Bit rate mode                            : Constant
Bit rate                                 : 192 kb/s
Channel(s)                               : 2 channels
Channel positions                        : Front: L R
Sampling rate                            : 48.0 kHz
Frame rate                               : 31.250 FPS (1536 spf)
Compression mode                         : Lossy
Stream size                              : 133 MiB (9%)
Alignment                                : Split accross interleaves
Interleave, duration                     : 42  ms (1.00 video frame)
Interleave, preload duration             : 500  ms



Что делать, если пишет видео недоступно?
Смотрeть онлайн фильм Книга мертвых в хорошем HD 1080 качестве



Описание: В поисках вдохновения Говард Филлипс Лавкрафт (классик литературы мистики и ужасов) отправляется в зловещее книгохранилище, где ... http://i78.fastpic.ru/big/2016/0831/a4/f7203b8da47ad4c9950bb90660e5c8a4.jpg http://i78.fastpic.ru/big/2016/0831/a4/f7203b8da47ad4c9950bb90660e5c8a4.jpg 2016-08-31 16:03 Cмотреть онлайн Книга мертвых true ru Скачать Книга мертвых через торрент, смотреть онлайн Книга мертвых http://i78.fastpic.ru/big/2016/0831/a4/f7203b8da47ad4c9950bb90660e5c8a4.jpg Скачать, смотреть онлайн Книга мертвых бесплатно в хорошем качестве Описание: В поисках вдохновения Говард Филлипс Лавкрафт (классик литературы мистики и ужасов) отправляется в зловещее книгохранилище, где ... 5.5 10 4
Торрент: Зарегистрирован [2016-08-31 16:03] · скачан: 27 раз
Статус: √ проверено
Размер: 1.46 GB
Как cкачать? Как скачать Книга мертвых через торрент | UTorrent | Поделиться в телеграм

% Раздел Тема Автор DL S | L
Фильмы [HD 720p, 1080p] (Звук Cam, VO, DVO) [ 8.71 GB ] Книга мёртвых / Necronomicon | AVO | 1080p (10 Bit Леонид Ильич Скачать
1 | 0
Фильмы (Blu-ray, BD-Remux, HDDVD) [ 25.28 GB ] Книга мертвых / Necronomicon | MVO | Книга мертвых / Necronomicon (Кристоф Ганс, Сюскэ Канэко, Брайан Юзна кэп Скачать
1 | 0

28-11-2019 20:33  


Отключить вcю реклaмy на сайте, в т.ч. и в плеере онлайн просмотра!

    Дорогой пользователь! Огромная просьба, поблагодарите релизера, оцените раздачу и оставьте свои комментарий, если Вы скачали Книга мертвых через торрент бесплатно!!
    Комментировать посты могут только пользователи прошедшие не сложную регистрацию
    Показать сообщения:    


    смотреть онлайн Книга мертвых
    Книга мертвых через торрент
    Скачать бесплатно Книга мертвых
    Книга мертвых скачать торрент
    Книга мертвых смотреть онлайн
    Cкачать фильм Книга мертвых бесплатно
    Книга мертвых скачать торрент в хорошем качестве
    Книга мертвых смотреть онлайн бесплатно в хорошем качестве
    Вы не можете начинать темы
    Вы не можете отвечать на сообщения
    Вы не можете редактировать свои сообщения
    Вы не можете удалять свои сообщения
    Вы не можете голосовать в опросах
    Вы не можете прикреплять файлы к сообщениям
    Вы можете скачивать файлы