Ссылка на приватное зеркало нашего сайта всего за 1$. Внимание количество ограничено!!!

2 сезон

iTunes

1 сезон

1

2 сезон

2 сезон

iTunes

1 сезон

RePack

30

Ultimate

ВАЖНО

ИГРА 18+

pack

RePack

MK11
pack

Забери бонус

RePack

jed

!!Акция!!

Alien_Rage

RePack

fifa19

RePack

Assassins Creed: Odyssey

RePack

NEED FOR SPEED™ PAYBACK

4 сезон

9 сезон

Бесстыжие 9 сезон

Все сериалы

все сериалы на PB.wtf

RePack

FAR CRY 5
  

Одноклассницы (Дмитрий Суворов ) [2016, комедия, WEB-DL 720p] iTunes pb.wtf

Одноклассницы через торрент pb.wtf

Размер: 2.4 GB | Добавлен: 4 года 2 мес. назад | Торрент скачан:193 раза
Скачать  

31-08-2016 19:49 Одноклассницы Скачать торрент  

Одноклассницы

Год выпуска: 2016
Страна: Россия
Жанр: комедия
Продолжительность: 01:17:21
Перевод: [Оригинал] iTunes
Режиссер: Дмитрий Суворов
В ролях: Светлана Ходченкова (Вика), Екатерина Вилкова (Света), Валентина Мазунина (Даша), Ольга Кузьмина (Катя), Арарат Кещян (Миша), Роман Юнусов (Слава), Илья Любимов (Андрей), Антон Макарский (Виктор), Денис Косяков (Вася), Дмитрий Хрусталев (играет самого себя), Данила Якушев, Алла Михеева
Описание:
Три подруги Вика, Света и Даша бросают свои дела и едут в Сочи на девичник к бывшей однокласснице Кате, чтобы как следует там оторваться. Веселье в разгаре и шампанское льется рекой, но тут случается то, чего никто не мог ожидать - в самый разгар праздника Катя застает своего жениха с пышногрудой блондинкой. Невеста в истерике. Она запирается в номере и говорит, что готова выйти за первого встречного, лишь бы не за него. Свадьба назначена на завтра и у решительных подруг есть всего лишь одна ночь, чтобы найти Кате нового мужа. Удастся ли им это?
Рейтинг:

Качество: WEB-DL 720p
Формат: MKV
Видео: AVC, 1280x536 (2.40:1), 4053 kbps, 24 fps, 0,246 bpp
Аудио: русский / AC3 / 5.1 / 48 kHz / 384 kbps /
Навигация по главам: есть

General
Unique ID 0DH0KLaCH1C1.2016.O.WEB-DL.720p.mkv
Format : Matroska
Format version : Version 4 / Version 2
File size : 2.40 GiB
Duration : 1 h 17 min
Overall bit rate : 4 439 kb/s
Encoded date : UTC 2016-07-06 18:07:17
Writing application : mkvmerge v8.3.0 ('Over the Horizon') 64bit
Writing library : libebml v1.3.1 + libmatroska v1.4.2

Video
ID : 1
Format : AVC
Format/Info : Advanced Video Codec
Format profile : Main@L3.1
Format settings, CABAC : No
Format settings, ReFrames : 2 frames
Codec ID : V_MPEG4/ISO/AVC
Duration : 1 h 17 min
Bit rate : 4 054 kb/s
Width : 1 280 pixels
Height : 536 pixels
Display aspect ratio : 2.40:1
Frame rate mode : Constant
Frame rate : 24.000 FPS
Color space : YUV
Chroma subsampling : 4:2:0
Bit depth : 8 bits
Scan type : Progressive
Bits/(Pixel*Frame) : 0.246
Stream size : 2.19 GiB (91%)
Language : English
Default : Yes
Forced : No
Color range : Limited
Color primaries : BT.709
Transfer characteristics : BT.709
Matrix coefficients : BT.709

Audio
ID : 2
Format : AC-3
Format/Info : Audio Coding 3
Mode extension : CM (complete main)
Format settings, Endianness : Big
Codec ID : A_AC3
Duration : 1 h 17 min
Bit rate mode : Constant
Bit rate : 384 kb/s
Channel(s) : 6 channels
Channel positions : Front: L C R, Side: L R, LFE
Sampling rate : 48.0 kHz
Frame rate : 31.250 FPS (1536 spf)
Compression mode : Lossy
Stream size : 212 MiB (9%)
Language : Russian
Default : Yes
Forced : No

Menu
00:00:00.000 : en:Глава 1
00:05:46.500 : en:Глава 2
00:11:18.333 : en:Глава 3
00:16:37.499 : en:Глава 4
00:22:01.165 : en:Глава 5
00:27:26.998 : en:Глава 6
00:33:40.289 : en:Глава 7
00:39:26.539 : en:Глава 8
00:44:47.330 : en:Глава 9
00:49:54.913 : en:Глава 10
00:56:11.079 : en:Глава 11
01:01:14.120 : en:Глава 12
01:06:20.078 : en:Глава 13
Скриншоты:
pb.wtf



Скачать Одноклассницы через торрент http://i2.imageban.ru/out/2016/08/31/10242502013fbfef717865d19272724f.jpg Скачать фильм Одноклассницы через торрент бесплантно в хорошем качестве Описание: Три подруги Вика, Света и Даша бросают свои дела и едут в Сочи на девичник к бывшей однокласснице Кате, чтобы как следует там ... 10 10 9
Торрент: Зарегистрирован [2016-08-31 19:49] · скачан: 193 раз
Статус: √ проверено
Размер: 2.4 GB
Как cкачать? Как скачать Одноклассницы через торрент | qTorrent

% Раздел Тема Автор DL S | L
Наши фильмы (HD, WEB-DL 720p, 1080p) [ 2.6 GB ] Одноклассницы [2016 WEB-DL 1080p] / DEVI Скачать
2 | 0

28-11-2019 20:33  

Отключить всю рекламу на сайте

01-09-2016 17:12 Одноклассницы Скачать торрент  

Жуткая х..ня!pb.wtf



    Дорогой пользователь! Огромная просьба, поблагодарите релизера, оцените раздачу и оставьте свои комментарий, если Вы скачали Одноклассницы через торрент бесплатно! Внесите свою лепту в развитие PiratBit!
    Комментировать посты могут только пользователи прошедшие не сложную регистрацию
    Показать сообщения:    

    Одноклассницы через торрент
    Скачать бесплатно Одноклассницы
    Одноклассницы скачать торрент
    Одноклассницы смотреть онлайн
    Cкачать фильм Одноклассницы бесплатно
    Одноклассницы скачать торрент в хорошем качестве
    Одноклассницы смотреть онлайн бесплатно в хорошем качестве


    Вы не можете начинать темы
    Вы не можете отвечать на сообщения
    Вы не можете редактировать свои сообщения
    Вы не можете удалять свои сообщения
    Вы не можете голосовать в опросах
    Вы не можете прикреплять файлы к сообщениям
    Вы можете скачивать файлы