Ссылка на приватное зеркало нашего сайта всего за 1$. Внимание количество ограничено!!!

2 сезон

iTunes

1 сезон

1

iTunes

iTunes

iTunes

1 сезон

RePack

30

ИГРА 18+

pack

ВАЖНО

!!Акция!!

Alien_RageХит недели

RePack

MK11
pack

Забери бонус

RePack

jed

!!Акция!!

Alien_Rage

RePack

fifa19

RePack

Assassins Creed: Odyssey

RePack

NEED FOR SPEED™ PAYBACK

4 сезон

9 сезон

Бесстыжие 9 сезон

Все сериалы

все сериалы на PB.wtf

RePack

FAR CRY 5
  

Лунный флаг / Atrapa la bandera (2015) BDRip-AVC от HELLYWOOD / iTunes pb.wtf

Лунный флаг через торрент pb.wtf

Размер: 1.42 GB | Добавлен: 4 года 1 мес. назад | Торрент скачан:234 раза
Скачать  

31-08-2016 20:08 Лунный флаг Скачать торрент  

Лунный флаг / Atrapa la bandera

Год выпуска: 2015
Страна: Испания
Жанр: мультфильм, комедия, приключения
Продолжительность: 01:34:38
Перевод: Дубляж [iTunes]
Субтитры: русские (полные + форс.)
Навигация по главам: есть
Режиссер: Энрике Гато
В ролях:

Дэни Ровира (Richard Carson, озвучка), Мишель Хеннер (Amy González, озвучка), Карме Калвелл (Mike Goldwing, озвучка), Хавьер Балас (Marty Farr, озвучка), Камилло Гарсия (Frank Goldwing, озвучка), Тони Мора (Scott Goldwing, озвучка), Марта Барбара (Samantha Goldwing, озвучка), Фернандо Гарсия Кабрера (Steve Gigs, озвучка), Ксавьер Касан (Bill Gags, озвучка), Ориол Тарраго (Igor, озвучка), Рамон Каналс (Jack Farr, озвучка), Джорди Ройо (Jay Lemmon, озвучка)
Описание: 12-летний Майк вместе со своими друзьями пытается спасти Луну от захвата злобным миллиардером Карсоном. Но для этого надо всего лишь... полететь в космос. Удастся ли обыкновенным подросткам пробраться на космическую базу, прилуниться и победить коварного злодея? Для этого понадобится помощь друзей, верной домашней ящерицы и родного деда. Большое космическое приключение, объединившее всю семью, начинается!

Качество: BDRip-AVC
Формат: MKV
Видео: AVC, 984x412 (2.40:1), 1761 kbps, 23,976 fps, 0,181 bpp
Аудио: AC3 / 5.1 / 48 kHz / 384 kbps / 16 bit

Код:

General
Unique ID                                : 176604952326925325204227881694768252620 (0x84DCE068F234573A88077672DD49C6CC)
Complete name                            : N:\Мульты\Lunnyi.Flag.2015.RUS.BDRip.x264.-HELLYWOOD.mkv
Format                                   : Matroska
Format version                           : Version 4 / Version 2
File size                                : 1.42 GiB
Duration                                 : 1 h 34 min
Overall bit rate                         : 2 147 kb/s
Movie name                               : Atrapa la bandera (2015)
Encoded date                             : UTC 2016-07-05 12:46:33
Writing application                      : mkvmerge v5.9.0 ('On The Loose') built on Dec 15 2012 16:39:58
Writing library                          : libebml v1.3.0 + libmatroska v1.4.0

Video
ID                                       : 1
Format                                   : AVC
Format/Info                              : Advanced Video Codec
Format profile                           : High@L4.1
Format settings, CABAC                   : Yes
Format settings, ReFrames                : 12 frames
Codec ID                                 : V_MPEG4/ISO/AVC
Duration                                 : 1 h 34 min
Bit rate                                 : 1 761 kb/s
Width                                    : 984 pixels
Height                                   : 412 pixels
Display aspect ratio                     : 2.40:1
Frame rate mode                          : Constant
Frame rate                               : 23.976 (24000/1001) FPS
Color space                              : YUV
Chroma subsampling                       : 4:2:0
Bit depth                                : 8 bits
Scan type                                : Progressive
Bits/(Pixel*Frame)                       : 0.181
Stream size                              : 1.14 GiB (80%)
Title                                    : potroks
Writing library                          : x264 core 148 r2705M 3f5ed56
Encoding settings                        : cabac=1 / ref=12 / deblock=1:-1:-1 / analyse=0x3:0x133 / me=umh / subme=11 / psy=1 / psy_rd=1.00:0.10 / mixed_ref=1 / me_range=48 / chroma_me=1 / trellis=2 / 8x8dct=1 / cqm=0 / deadzone=21,11 / fast_pskip=0 / chroma_qp_offset=-3 / threads=9 / lookahead_threads=2 / sliced_threads=0 / nr=0 / decimate=0 / interlaced=0 / bluray_compat=0 / constrained_intra=0 / bframes=13 / b_pyramid=2 / b_adapt=2 / b_bias=0 / direct=3 / weightb=1 / open_gop=0 / weightp=2 / keyint=240 / keyint_min=23 / scenecut=40 / intra_refresh=0 / rc_lookahead=100 / rc=2pass / mbtree=0 / bitrate=1761 / ratetol=1.0 / qcomp=0.70 / qpmin=1 / qpmax=69 / qpstep=4 / cplxblur=20.0 / qblur=0.5 / vbv_maxrate=50000 / vbv_bufsize=60000 / nal_hrd=none / filler=0 / ip_ratio=1.40 / pb_ratio=1.30 / aq=1:0.75
Language                                 : Spanish
Default                                  : Yes
Forced                                   : No

Audio
ID                                       : 2
Format                                   : AC-3
Format/Info                              : Audio Coding 3
Mode extension                           : CM (complete main)
Format settings, Endianness              : Big
Codec ID                                 : A_AC3
Duration                                 : 1 h 34 min
Bit rate mode                            : Constant
Bit rate                                 : 384 kb/s
Channel(s)                               : 6 channels
Channel positions                        : Front: L C R, Side: L R, LFE
Sampling rate                            : 48.0 kHz
Frame rate                               : 31.250 FPS (1536 spf)
Compression mode                         : Lossy
Stream size                              : 260 MiB (18%)
Title                                    : Dub | DD 5.1 2 384 kbps - iTunes
Language                                 : Russian
Default                                  : Yes
Forced                                   : No

Text #1
ID                                       : 3
Format                                   : UTF-8
Codec ID                                 : S_TEXT/UTF8
Codec ID/Info                            : UTF-8 Plain Text
Title                                    : Forced
Language                                 : Russian
Default                                  : Yes
Forced                                   : No

Text #2
ID                                       : 4
Format                                   : UTF-8
Codec ID                                 : S_TEXT/UTF8
Codec ID/Info                            : UTF-8 Plain Text
Title                                    : iTunes
Language                                 : Russian
Default                                  : No
Forced                                   : No

Menu
00:00:00.000                             : :(01)00:00:00:000
00:05:49.598                             : :(02)00:05:49:598
00:07:41.502                             : :(03)00:07:41:502
00:12:22.365                             : :(04)00:12:22:365
00:15:45.818                             : :(05)00:15:45:818
00:21:18.777                             : :(06)00:21:18:777
00:26:53.193                             : :(07)00:26:53:193
00:31:17.165                             : :(08)00:31:17:165
00:40:15.246                             : :(09)00:40:15:246
00:44:03.514                             : :(10)00:44:03:514
00:49:22.250                             : :(11)00:49:22:250
00:51:58.572                             : :(12)00:51:58:572
00:58:52.862                             : :(13)00:58:52:862
01:02:46.554                             : :(14)01:02:46:554
01:06:00.373                             : :(15)01:06:00:373
01:10:32.228                             : :(16)01:10:32:228
01:16:27.416                             : :(17)01:16:27:416
01:24:17.385                             : :(18)01:24:17:385
01:26:24.429                             : :(19)01:26:24:429
01:34:32.416                             : :(20)01:34:32:416

pb.wtf



Скачать Лунный флаг через торрент http://i84.fastpic.ru/big/2016/0901/0c/5de08e4810434f469d37d178b696360c.png Скачать фильм Лунный флаг через торрент бесплантно в хорошем качестве Описание: 12-летний Майк вместе со своими друзьями пытается спасти Луну от захвата злобным миллиардером Карсоном. Но для этого надо всего ... 10 10 8
Info! Золотая раздача, скачанное не засчитывается.
Торрент: Зарегистрирован [2016-08-31 20:08] · скачан: 234 раз
Статус: √ проверено
Размер: 1.42 GB
Как cкачать? Как скачать Лунный флаг через торрент | qTorrent

28-11-2019 20:33  

Отключить всю рекламу на сайте

    Дорогой пользователь! Огромная просьба, поблагодарите релизера, оцените раздачу и оставьте свои комментарий, если Вы скачали Лунный флаг через торрент бесплатно! Внесите свою лепту в развитие PiratBit!
    Комментировать посты могут только пользователи прошедшие не сложную регистрацию
    Показать сообщения:    

    Лунный флаг через торрент
    Скачать бесплатно Лунный флаг
    Лунный флаг скачать торрент
    Лунный флаг смотреть онлайн
    Cкачать фильм Лунный флаг бесплатно
    Лунный флаг скачать торрент в хорошем качестве
    Лунный флаг смотреть онлайн бесплатно в хорошем качестве


    Вы не можете начинать темы
    Вы не можете отвечать на сообщения
    Вы не можете редактировать свои сообщения
    Вы не можете удалять свои сообщения
    Вы не можете голосовать в опросах
    Вы не можете прикреплять файлы к сообщениям
    Вы можете скачивать файлы