Ссылка на приватное зеркало нашего сайта всего за 1$. Внимание количество ограничено!!!

2 сезон

iTunes

1 сезон

1

iTunes

iTunes

iTunes

1 сезон

RePack

30

ИГРА 18+

pack

ВАЖНО

!!Акция!!

Alien_RageХит недели

RePack

MK11
pack

Забери бонус

RePack

jed

!!Акция!!

Alien_Rage

RePack

fifa19

RePack

Assassins Creed: Odyssey

RePack

NEED FOR SPEED™ PAYBACK

4 сезон

9 сезон

Бесстыжие 9 сезон

Все сериалы

все сериалы на PB.wtf

RePack

FAR CRY 5
  

Взорвать Гитлера / Elser (Оливер Хиршбигель) [2015 г., драма, BDRip 720p, Дубляж iTunes] pb.wtf

Взорвать Гитлера через торрент pb.wtf

Размер: 5.75 GB | Добавлен: 4 года 1 мес. назад | Торрент скачан:64 раза
Скачать  

31-08-2016 20:40 Взорвать Гитлера Скачать торрент  

Взорвать Гитлера / Elser
Год выпуска: 2015
Страна: Германия
Жанр: драма
Продолжительность: 01:53:48
Перевод: Дубляж (iTunes)+ Немецкий+ Профессиональный многоголосый
Субтитры: Английские, немецкие

Режиссер: Оливер Хиршбигель

В ролях: Кристиан Фридель, Катарина Шюттлер, Бургхарт Клаусснер, Йохан фон Бюлов, Феликс Эйтнер, Давид Зиммершмид, Рюдигер Клинк, Симон Лихт, Корнелия Конгден, Мартин Мария Абрам

Описание: Всего 13 минут не хватило плотнику Георгу Эльзеру, чтобы изменить ход мировой истории. 8 ноября 1939 года в мюнхенской пивной «Бюргербройкеллер», где Гитлер каждый год в годовщину «Пивного путча» выступал перед ветеранами Национал-социалистической рабочей партии Германии Эльзер вмонтировал самодельное взрывное устройство с часовым механизмом в колонну, перед которой обычно устанавливали трибуну для вождя.

Качество: BDRip (720p)
Формат: MKV
Видео кодек: AVC
Аудио кодек: AC3-DTS
Видео: MPEG-4 AVC, (1280x536),5496 Кбит/с, 24.000 кадра/сек
Аудио#1: AC3, 6 ch,384 kbps (Rus) 48.0 KHz Дублированное - (iTunes)
Аудио#2: DTS, 6 ch,768 kbps (Ger) 48.0 KHz Немецкий
Аудио#3: AC3, 6 ch,448 kbps (Rus) 48.0 KHz Профессиональный многоголосый
скриншот   скриншот   скриншот  

Тип потока: Видео
Длительность: 01:53:48
Кодек: AVC
Кодек/описание: Advanced Video Codec
Кодек/профиль: High@L4.1
Кодек/ID: V_MPEG4/ISO/AVC
Кодек/CABAC: Yes
Кодек/ReFrames: 9 frames
Размеры изображения: 1280 x 536 (2.40:1)
Частота кадров: 24.000 fps
Частота кадров/тип: Constant
Размер потока: 4.37 GiB (76%)
Битрейт: 5 496 Kbps
Библиотека кодирования: x264 core 142 r2431+42 c69a006 tMod [8-bit@4:2:0 X86_64]
Цветовое пространство: YUV
Тип развёртки: Progressive
Колориметрия: 4:2:0
Глубина: 8 bits:
Тип потока: Звук #1
Язык: Russian
Название: Дублированное - (iTunes)
Длительность: 01:53:48.128
Кодек: AC-3
Кодек/описание: Audio Coding 3
Кодек/ID: A_AC3
Частота дискретизации: 48.0 KHz
Каналов: 6 channels
Битрейт: 384 Kbps
Битрейт/тип: Constant
Размер потока: 313 MiB (5%)
Глубина: 16 bits
Метод сжатия: Lossy
:
Тип потока: Звук #2
Язык: Russian
Название: Профессиональный многоголосый
Длительность: 01:53:48.128
Кодек: AC-3
Кодек/описание: Audio Coding 3
Кодек/ID: A_AC3
Частота дискретизации: 48.0 KHz
Каналов: 6 channels
Битрейт: 448 Kbps
Битрейт/тип: Constant
Размер потока: 365 MiB (6%)
Глубина: 16 bits
Метод сжатия: Lossy
:
Тип потока: Звук #3
Язык: Немецкий
Длительность: 01:53:48.128
Кодек: DTS
Кодек/описание: Digital Theater Systems
Кодек/ID: A_DTS
Частота дискретизации: 48.0 KHz
Каналов: 6 channels
Битрейт: 768 Kbps
Битрейт/тип: Constant
Размер потока: 625 MiB (11%)
Глубина: 24 bits
Метод сжатия: Lossy
:
Тип потока: Субтитры #1
Язык: English
Формат: UTF-8
Формат/подробно: UTF-8 Plain Text
:
Тип потока: Субтитры #2
Язык: German
Формат: UTF-8
Формат/подробно: UTF-8 Plain Text

pb.wtf



Скачать Взорвать Гитлера через торрент http://pic1.kartinco.top/images/10/kknvr.jpg Скачать фильм Взорвать Гитлера через торрент бесплантно в хорошем качестве Описание: Всего 13 минут не хватило плотнику Георгу Эльзеру, чтобы изменить ход мировой истории. 8 ноября 1939 года в мюнхенской пивной ... 9.7 10 7
Торрент: Зарегистрирован [2016-08-31 20:40] · скачан: 64 раз
Статус: # сомнительно
Размер: 5.75 GB
Как cкачать? Как скачать Взорвать Гитлера через торрент | qTorrent

% Раздел Тема Автор DL S | L
Фильмы 2015 [DVDrip, WEB-DLRip, HDrip] [ 2.27 GB ] Взорвать Гитлера / Elser [2015 история военный BDRip-AVC] Dub potroks Скачать
1 | 0

28-11-2019 20:33  

Отключить всю рекламу на сайте

31-08-2016 20:47 Взорвать Гитлера Скачать торрент  

5000 тысяч очков золотоpb.wtf



01-09-2016 00:29 Взорвать Гитлера Скачать торрент  

так себе киноpb.wtf



    Дорогой пользователь! Огромная просьба, поблагодарите релизера, оцените раздачу и оставьте свои комментарий, если Вы скачали Взорвать Гитлера через торрент бесплатно! Внесите свою лепту в развитие PiratBit!
    Комментировать посты могут только пользователи прошедшие не сложную регистрацию
    Показать сообщения:    

    Взорвать Гитлера через торрент
    Скачать бесплатно Взорвать Гитлера
    Взорвать Гитлера скачать торрент
    Взорвать Гитлера смотреть онлайн
    Cкачать фильм Взорвать Гитлера бесплатно
    Взорвать Гитлера скачать торрент в хорошем качестве
    Взорвать Гитлера смотреть онлайн бесплатно в хорошем качестве


    Вы не можете начинать темы
    Вы не можете отвечать на сообщения
    Вы не можете редактировать свои сообщения
    Вы не можете удалять свои сообщения
    Вы не можете голосовать в опросах
    Вы не можете прикреплять файлы к сообщениям
    Вы можете скачивать файлы