Ссылка на приватное зеркало всего за 1$. Внимание количество ограничено!!!

iTunes

iTunes

iTunes

1

iTunes

iTunes

iTunes

iTunes

iTunes

30
pack

$ от Little Big

ВАЖНО

!!Акция!!

Alien_RageХит недели

RePack

Resident Evil 21

ИГРА 18+

pack

RePack

jed

!!Акция!!

Alien_Rage

RePack

fifa19

RePack

Assassins Creed: Odyssey

RePack

NEED FOR SPEED™ PAYBACK

4 сезон

9 сезон

Бесстыжие 9 сезон

Все сериалы

все сериалы на PB.wtf

RePack

FAR CRY 5
  

Полтора шпиона / Central Intelligence (Роусон Маршалл Тёрбер) [2016, боевик, комедия, криминал, WEB-DL 1080p, Дубляж] iTunes pb.wtf

Полтора шпиона через торрент pb.wtf

Размер: 3.71 GB | Добавлен: 3 года 10 мес. назад | Торрент скачан:2758 раз
Скачать  

31-08-2016 21:02 Полтора шпиона Скачать торрент  

Полтора шпиона / Central Intelligence
««Они попробуют спасти мир: малыш Харт и скала Джонсон»»


Год выпуска: 2016
Страна: США
Жанр: боевик, комедия, криминал

Продолжительность: 01:47:31
Перевод: Дубляж - [Лицензия / iTunes]
Режиссер: Роусон Маршалл Тёрбер
В ролях:

Дуэйн Джонсон (Bob Stone), Кевин Харт (Calvin Joyner), Эми Райан (Agent Pamela Harris), Даниэль Николет (Maggie), Джейсон Бейтман (Trevor), Аарон Пол (Phil), Райан Хансен (Steve), Тим Гриффин (Agent Stan Mitchell), Тимоти Джон Смит (Agent Nick Cooper), Сион Келепи (Young Robbie), Дилан Бойяк (Trevor - 17 Years Old), Томас Кречман (The Buyer)
Описание:
От лайка в соцсети до спасения мира - один шаг. Сегодня ты френдишь бывшего одноклассника, а завтра - он тащит тебя под пули. Кто ж знал, что заядлый любитель пончиков превратится в похожего на скалу супершпиона.
Мировая премьера: 10 июня 2016

Качество: WEB-DL 1080p

Формат: MKV
Видео: AVC, 1916x796 (2.40:1), 4454 kbps, 23,976 fps, 0,122 bpp
Аудио: русский / AC3 / 5.1 / 48 kHz / 384 kbps / ||
Семпл
General
Unique ID : 245259804405126769080112898411449573497 (0xB88351F513E48422B97A767722086079)
Complete name : E:\Central.Intelligence.2016.1080p.WEB-DL.Rus-EVO.mkv
Format : Matroska
Format version : Version 4 / Version 2
File size : 3.71 GiB
Duration : 1 h 47 min
Overall bit rate : 4 937 kb/s
Movie name : released by aldershot
Encoded date : UTC 2016-08-31 19:11:46
Writing application : mkvmerge v6.9.1 ('Blue Panther') 64bit built on Apr 18 2014 18:23:38
Writing library : libebml v1.3.0 + libmatroska v1.4.1

Video
ID : 1
Format : AVC
Format/Info : Advanced Video Codec
Format profile : High@L4
Format settings, CABAC : Yes
Format settings, ReFrames : 5 frames
Codec ID : V_MPEG4/ISO/AVC
Duration : 1 h 47 min
Bit rate : 4 454 kb/s
Width : 1 916 pixels
Height : 796 pixels
Display aspect ratio : 2.40:1
Frame rate mode : Constant
Frame rate : 23.976 FPS
Color space : YUV
Chroma subsampling : 4:2:0
Bit depth : 8 bits
Scan type : Progressive
Bits/(Pixel*Frame) : 0.122
Stream size : 3.35 GiB (90%)
Title : EVO
Language : English
Default : Yes
Forced : No
Color range : Limited
Color primaries : BT.709
Transfer characteristics : BT.709
Matrix coefficients : BT.709

Audio
ID : 2
Format : AC-3
Format/Info : Audio Coding 3
Mode extension : CM (complete main)
Format settings, Endianness : Big
Codec ID : A_AC3
Duration : 1 h 47 min
Bit rate mode : Constant
Bit rate : 384 kb/s
Channel(s) : 6 channels
Channel positions : Front: L C R, Side: L R, LFE
Sampling rate : 48.0 kHz
Frame rate : 31.250 FPS (1536 spf)
Compression mode : Lossy
Stream size : 295 MiB (8%)
Title : AC3 5.1 @ 384 kbps - DUB, iTunes
Language : Russian
Default : Yes
Forced : No

Menu
00:00:00.000 : en:1
00:09:12.000 : en:2
00:20:12.000 : en:3
00:30:31.000 : en:4
00:43:22.000 : en:5
00:52:43.000 : en:6
00:58:10.000 : en:7
01:10:17.000 : en:8
01:18:37.000 : en:9
01:28:57.000 : en:10
01:39:37.000 : en:11
01:41:33.000 : en:12
[/url]

© Оформление by White Smoke pb.wtf



Скачать Полтора шпиона через торрент http://i6.imageban.ru/out/2016/08/31/7e30d069c1d21fdb2684fcf4eaef0ae1.jpg Скачать фильм Полтора шпиона через торрент бесплантно в хорошем качестве Описание: От лайка в соцсети до спасения мира - один шаг. Сегодня ты френдишь бывшего одноклассника, а завтра - он тащит тебя под пули. Кто ... 9.7 10 65
Info! Золотая раздача, скачанное не засчитывается.
Торрент: Зарегистрирован [2016-08-31 21:02] · скачан: 2 758 раз
Статус: √ проверено
Размер: 3.71 GB
Как cкачать? Как скачать Полтора шпиона через торрент | qTorrent

% Раздел Тема Автор DL S | L
R.G. Resident & PiratVoice - Фильмы, Видео [ 1.46 GB ] Полтора шпиона / Central Intelligence [2016 WEB-DLRip-AVC ] White Smoke Скачать
2 | 0
Фильмы 2016 [DVDrip, WEB-DLRip, HDrip] (DUB, MVO) [ 2.05 GB ] Полтора шпиона / Central Intelligence [2016 BDRip] [Theatrical Cut] killermax2013 Скачать
1 | 0
R.G. Resident & PiratVoice - Фильмы, Видео [ 5.41 GB ] Полтора шпиона / Central Intelligence [2016 BDRip 720p - ] R.G.Resident schultz Скачать
2 | 0
Фильмы 2016 [DVDrip, WEB-DLRip, HDrip] (DUB, MVO) [ 3.33 GB ] Полтора шпиона / Central Intelligence [2016 WEB-DL 720p] killermax2013 Скачать
2 | 0
Фильмы 2016 [DVDrip, WEB-DLRip, HDrip] (DUB, MVO) [ 748 MB ] Полтора шпиона / Central Intelligence [2016 BDRip / ] неАлексей Скачать
1 | 0
Фильмы с украинским озвучиванием [ 1.45 GB ] Полтора шпиона / Півтора шпигуна / Central Intelligence [2016 BDRip] [Theatrical Cut] [Ukr DUB] killermax2013 Скачать
1 | 0
Фильмы 2016 [DVDrip, WEB-DLRip, HDrip] (DUB, MVO) [ 1.46 GB ] Полтора шпиона / Central Intelligence [2016 WEB-DLRip] $-DRON-$ Скачать
1 | 0

28-11-2019 20:33  

Отключить всю рекламу на сайте

01-09-2016 00:26 Полтора шпиона Скачать торрент  

да да да
неужели в качестве )) дааааааааааааpb.wtf



01-09-2016 04:50 Полтора шпиона Скачать торрент  

lewa18 писал(а):

неужели в качестве )) даааааааааааа

Не ужели такой фильм?pb.wtf



04-09-2016 10:19 Полтора шпиона Скачать торрент  

Спасибо, нужно будет посмотреть.pb.wtf



05-09-2016 07:25 Полтора шпиона Скачать торрент  

Показалось, что Кевин Харт переигрывает, но в целом фильм смотрелся на ура...
Спасибо за раздачу!pb.wtf



05-09-2016 11:42 Полтора шпиона Скачать торрент  

вполне смотрибельноpb.wtf



05-09-2016 12:28 Полтора шпиона Скачать торрент  

хрень какая тоpb.wtf



22-09-2016 06:18 Полтора шпиона Скачать торрент  

Ожидал большего,а тут облом pb.wtf



    Дорогой пользователь! Огромная просьба, поблагодарите релизера, оцените раздачу и оставьте свои комментарий, если Вы скачали Полтора шпиона через торрент бесплатно! Внесите свою лепту в развитие PiratBit!
    Комментировать посты могут только пользователи прошедшие не сложную регистрацию
    Показать сообщения:    

    Полтора шпиона через торрент
    Скачать бесплатно Полтора шпиона
    Полтора шпиона скачать торрент
    Полтора шпиона смотреть онлайн
    Cкачать фильм Полтора шпиона бесплатно
    Полтора шпиона скачать торрент в хорошем качестве
    Полтора шпиона смотреть онлайн бесплатно в хорошем качестве


    Вы не можете начинать темы
    Вы не можете отвечать на сообщения
    Вы не можете редактировать свои сообщения
    Вы не можете удалять свои сообщения
    Вы не можете голосовать в опросах
    Вы не можете прикреплять файлы к сообщениям
    Вы можете скачивать файлы