2 сезон

iTunes

1 сезон

1

iTunes

iTunes

iTunes

1 сезон

RePack

30

ИГРА 18+

pack

ВАЖНО

!!Акция!!

Alien_RageХит недели

RePack

MK11
pack

Забери бонус

RePack

jed

!!Акция!!

Alien_Rage

RePack

fifa19

RePack

Assassins Creed: Odyssey

RePack

NEED FOR SPEED™ PAYBACK

4 сезон

9 сезон

Бесстыжие 9 сезон

Все сериалы

все сериалы на PB.wtf

RePack

FAR CRY 5
  

Кунг-фу Панда 3 / Kung Fu Panda 3 (Алессандро Карлони , Дженнифер Ю ) [2016, мультфильм, боевик, комедия, BDRip-AVC от potroks] Dub [Лицензия] pb.wtf

Кунг-фу Панда 3 через торрент pb.wtf

Раздают: 1 [ 0 KB/s ]
Размер: 2.18 GB | Добавлен: 4 года 1 мес. назад | Торрент скачан:494 раза
Скачать  

01-09-2016 06:44 Кунг-фу Панда 3 Скачать торрент  

Кунг-фу Панда 3 / Kung Fu Panda 3

Год выпуска: 2016
Страна: США, Китай / DreamWorks Animation, China Film Co., Oriental DreamWorks
Жанр: мультфильм, боевик, комедия, приключения, семейный
Продолжительность: 01:34:54
Перевод: Дубляж [Blu-ray 3D BALTiC]
Субтитры: русские (полные + форс.), украинские (полные + форс.), английские (Full + SDH + SDH-Colored)
Навигация по главам: есть
Режиссер: Алессандро Карлони , Дженнифер Ю
В ролях:

Джек Блэк (Po, озвучка), Брайан Крэнстон (Li, озвучка), Дастин Хоффман (Shifu, озвучка), Анджелина Джоли (Tigress, озвучка), Дж.К. Симмонс (Kai, озвучка), Джеки Чан (Monkey, озвучка), Сет Роген (Mantis, озвучка), Люси Лью (Viper, озвучка), Дэвид Кросс (Crane, озвучка), Кейт Хадсон (Mei Mei, озвучка), Джеймс Хонг (Mr. Ping, озвучка), Рэндолл Дак Ким (Oogway, озвучка)
Описание: Воссоединившись со своим давно потерянным отцом, По отправляется в тайный рай для панд, где его ожидает встреча с множеством веселых сородичей. Однако вскоре злодей Кай начинает зачистку - он уничтожает кунг-фу мастеров по всему Китаю.

Качество: BDRip-AVC
Формат: MKV
Видео: AVC, 1040x442 (2,35:1), 2393 kbps, 23,976 fps, 0.217 bpp
Аудио#1: AC3 / 5.1 / 48 kHz / 448 kbps / 16 bit | RUS
Аудио#2: AC3 / 5.1 / 48 kHz / 448 kbps / 16 bit | ENG

Код:

Общее
Уникальный идентификатор : 175645669320999218348089943619218351062 (0x8424201B2DEEAC8AA485BAB26882A3D6)
Полное имя : D:\Kung.Fu.Panda.3.2016.DUAL.BDRip.x264.-HELLYWOOD.mkv
Формат : Matroska
Версия формата : Version 4 / Version 2
Размер файла : 2,18 Гбайт
Продолжительность : 1 ч. 34 м.
Общий поток : 3291 Кбит/сек
Название фильма : Kung Fu Panda 3 (2016)
Дата кодирования : UTC 2016-07-08 04:00:52
Программа кодирования : mkvmerge v5.9.0 ('On The Loose') built on Dec 15 2012 16:39:58
Библиотека кодирования : libebml v1.3.0 + libmatroska v1.4.0

Видео
Идентификатор : 1
Формат : AVC
Формат/Информация : Advanced Video Codec
Профиль формата : High@L4.1
Параметр CABAC формата : Да
Параметр ReFrames формата : 10 кадров
Идентификатор кодека : V_MPEG4/ISO/AVC
Продолжительность : 1 ч. 34 м.
Битрейт : 2393 Кбит/сек
Ширина : 1040 пикселей
Высота : 442 пикселя
Соотношение сторон : 2,35:1
Режим частоты кадров : Постоянный
Частота кадров : 23,976 кадра/сек
Цветовое пространство : YUV
Субдискретизация насыщенности : 4:2:0
Битовая глубина : 8 бит
Тип развёртки : Прогрессивная
Бит/(Пиксели*Кадры) : 0.217
Размер потока : 1,54 Гбайт (71%)
Заголовок : potroks
Библиотека кодирования : x264 core 146 r2538 121396c
Настройки программы : cabac=1 / ref=10 / deblock=1:-1:-1 / analyse=0x3:0x113 / me=umh / subme=11 / psy=1 / psy_rd=1.05:0.10 / mixed_ref=1 / me_range=32 / chroma_me=1 / trellis=2 / 8x8dct=1 / cqm=0 / deadzone=21,11 / fast_pskip=0 / chroma_qp_offset=-3 / threads=9 / lookahead_threads=2 / sliced_threads=0 / nr=0 / decimate=0 / interlaced=0 / bluray_compat=0 / constrained_intra=0 / bframes=11 / b_pyramid=2 / b_adapt=2 / b_bias=0 / direct=3 / weightb=1 / open_gop=0 / weightp=2 / keyint=240 / keyint_min=23 / scenecut=40 / intra_refresh=0 / rc_lookahead=60 / rc=2pass / mbtree=0 / bitrate=2393 / ratetol=1.0 / qcomp=0.70 / qpmin=0 / qpmax=69 / qpstep=4 / cplxblur=20.0 / qblur=0.5 / vbv_maxrate=14000 / vbv_bufsize=14000 / nal_hrd=none / filler=0 / ip_ratio=1.35 / pb_ratio=1.25 / aq=1:0.80
Язык : English
Default : Да
Forced : Нет

Аудио #1
Идентификатор : 2
Формат : AC-3
Формат/Информация : Audio Coding 3
Расширение режима : CM (complete main)
Параметр Endianness формата : Big
Идентификатор кодека : A_AC3
Продолжительность : 1 ч. 34 м.
Вид битрейта : Постоянный
Битрейт : 448 Кбит/сек
Каналы : 6 каналов
Расположение каналов : Front: L C R, Side: L R, LFE
Частота : 48,0 КГц
Частота кадров : 31,250 кадров/сек (1536 spf)
Метод сжатия : С потерями
Размер потока : 304 Мбайт (14%)
Заголовок : Dub | DD 5.1 @ 448 kbps - Blu-ray 3D BALTiC
Язык : Russian
Default : Да
Forced : Нет

Аудио #2
Идентификатор : 3
Формат : AC-3
Формат/Информация : Audio Coding 3
Расширение режима : CM (complete main)
Параметр Endianness формата : Big
Идентификатор кодека : A_AC3
Продолжительность : 1 ч. 34 м.
Вид битрейта : Постоянный
Битрейт : 448 Кбит/сек
Каналы : 6 каналов
Расположение каналов : Front: L C R, Side: L R, LFE
Частота : 48,0 КГц
Частота кадров : 31,250 кадров/сек (1536 spf)
Метод сжатия : С потерями
Размер потока : 304 Мбайт (14%)
Заголовок : Original | DD 5.1 @ 448 kbps
Язык : English
Default : Нет
Forced : Нет

Текст #1
Идентификатор : 4
Формат : UTF-8
Идентификатор кодека : S_TEXT/UTF8
Идентификатор кодека/Информация : UTF-8 Plain Text
Заголовок : Forced
Язык : Russian
Default : Да
Forced : Нет

Текст #2
Идентификатор : 5
Формат : UTF-8
Идентификатор кодека : S_TEXT/UTF8
Идентификатор кодека/Информация : UTF-8 Plain Text
Заголовок : iTunes
Язык : Russian
Default : Нет
Forced : Нет

Текст #3
Идентификатор : 6
Формат : UTF-8
Идентификатор кодека : S_TEXT/UTF8
Идентификатор кодека/Информация : UTF-8 Plain Text
Заголовок : Forced
Язык : Ukrainian
Default : Нет
Forced : Нет

Текст #4
Идентификатор : 7
Формат : UTF-8
Идентификатор кодека : S_TEXT/UTF8
Идентификатор кодека/Информация : UTF-8 Plain Text
Заголовок : iTunes
Язык : Ukrainian
Default : Нет
Forced : Нет

Текст #5
Идентификатор : 8
Формат : UTF-8
Идентификатор кодека : S_TEXT/UTF8
Идентификатор кодека/Информация : UTF-8 Plain Text
Заголовок : Full
Язык : English
Default : Нет
Forced : Нет

Текст #6
Идентификатор : 9
Формат : UTF-8
Идентификатор кодека : S_TEXT/UTF8
Идентификатор кодека/Информация : UTF-8 Plain Text
Заголовок : SDH
Язык : English
Default : Нет
Forced : Нет

Текст #7
Идентификатор : 10
Формат : UTF-8
Идентификатор кодека : S_TEXT/UTF8
Идентификатор кодека/Информация : UTF-8 Plain Text
Заголовок : SDH-Colored
Язык : English
Default : Нет
Forced : Нет

Меню
00:00:00.000 : :(01)00:00:00:000
00:05:21.778 : :(02)00:05:21:778
00:08:10.238 : :(03)00:08:10:238
00:10:00.015 : :(04)00:10:00:015
00:12:26.035 : :(05)00:12:26:035
00:15:24.214 : :(06)00:15:24:214
00:19:08.230 : :(07)00:19:08:230
00:24:39.394 : :(08)00:24:39:394
00:30:17.606 : :(09)00:30:17:606
00:33:53.990 : :(10)00:33:53:990
00:36:18.259 : :(11)00:36:18:259
00:39:55.643 : :(12)00:39:55:643
00:43:32.650 : :(13)00:43:32:650
00:46:45.844 : :(14)00:46:45:844
00:51:41.181 : :(15)00:51:41:181
00:56:04.610 : :(16)00:56:04:610
00:59:48.166 : :(17)00:59:48:166
01:02:11.351 : :(18)01:02:11:351
01:05:26.963 : :(19)01:05:26:963
01:10:16.837 : :(20)01:10:16:837
01:14:06.899 : :(21)01:14:06:899
01:17:06.579 : :(22)01:17:06:579
01:20:34.787 : :(23)01:20:34:787
01:24:21.180 : :(24)01:24:21:180
01:34:54.438 : :(25)01:34:54:438

pb.wtf



Скачать Кунг-фу Панда 3 через торрент http://i78.fastpic.ru/big/2016/0901/db/8fa5ea063253b5b7521a8b56359679db.png Скачать фильм Кунг-фу Панда 3 через торрент бесплантно в хорошем качестве Описание: Воссоединившись со своим давно потерянным отцом, По отправляется в тайный рай для панд, где его ожидает встреча с множеством ... 10 10 6
Info! Золотая раздача, скачанное не засчитывается.
Торрент: Зарегистрирован [2016-09-01 06:44] · скачан: 494 раз
Статус: √ проверено
Размер: 2.18 GB
Как cкачать? Как скачать Кунг-фу Панда 3 через торрент | qTorrent

% Раздел Тема Автор DL S | L
Мультсериалы [ 71.58 GB ] Кунг-фу Панда: Удивительные легенды / Kung Fu Panda: Legends of Awesomeness / Сезоны: 1-3 / Серии: 1-80 из 80 [2011-2016 Мультфильм WEB-DL 1080p] DUB bober100 Скачать
1 | 0
Зарубежные Мультфильмы (BDRip 1080p, 720p, Blu-ray, BD-Remux) [ 4.24 GB ] Кунг-фу Панда 3 / Kung Fu Panda 3 [2016 мультфильм BDRip 720p] DUB [ Blu-Ray EUR] bober100 Скачать
1 | 0
Зарубежные Мультфильмы (BDRip 1080p, 720p, Blu-ray, BD-Remux) [ 10.5 GB ] Кунг-фу Панда 3 / Kung Fu Panda 3 [2016 мультфильм BDRip 1080p] DUB [ Blu-Ray EUR] bober100 Скачать
2 | 0
Зарубежные Мультфильмы (BDRip 1080p, 720p, Blu-ray, BD-Remux) [ 22.27 GB ] Кунг-фу Панда 3 / Kung Fu Panda 3 [2016 мультфильм BD Remux 1080p] DUB [ Blu-Ray EUR] bober100 Скачать
1 | 0
Иностранные мультфильмы [ 1.46 GB ] Кунг-фу Панда 3 / Kung Fu Panda 3 [2016 мультфильм BDRip-AVC] potroks Скачать
1 | 0
Иностранные мультфильмы [ 1.46 GB ] Кунг-фу Панда 3 / Kung Fu Panda 3 [2016 Китай мультфильм BDRip-AVC от sokol_ok] DUB sokol_ok Скачать
2 | 0
Зарубежные Мультфильмы (BDRip 1080p, 720p, Blu-ray, BD-Remux) [ 38.98 GB ] Кунг-фу Панда 3 / Kung Fu Panda 3 [2016 мультфильм Blu-Ray EUR] Russian Mafia Скачать
1 | 0

28-11-2019 20:33  

Отключить всю рекламу на сайте

    Дорогой пользователь! Огромная просьба, поблагодарите релизера, оцените раздачу и оставьте свои комментарий, если Вы скачали Кунг-фу Панда 3 через торрент бесплатно! Внесите свою лепту в развитие PiratBit!
    Комментировать посты могут только пользователи прошедшие не сложную регистрацию
    Показать сообщения:    

    Кунг-фу Панда 3 через торрент
    Скачать бесплатно Кунг-фу Панда 3
    Кунг-фу Панда 3 скачать торрент
    Кунг-фу Панда 3 смотреть онлайн
    Cкачать фильм Кунг-фу Панда 3 бесплатно
    Кунг-фу Панда 3 скачать торрент в хорошем качестве
    Кунг-фу Панда 3 смотреть онлайн бесплатно в хорошем качестве


    Вы не можете начинать темы
    Вы не можете отвечать на сообщения
    Вы не можете редактировать свои сообщения
    Вы не можете удалять свои сообщения
    Вы не можете голосовать в опросах
    Вы не можете прикреплять файлы к сообщениям
    Вы можете скачивать файлы