Ссылка на приватное зеркало нашего сайта всего за 1$. Внимание количество ограничено!!!

2 сезон

iTunes

1 сезон

1

iTunes

iTunes

iTunes

1 сезон

RePack

30

ИГРА 18+

pack

ВАЖНО

!!Акция!!

Alien_RageХит недели

RePack

MK11
pack

Забери бонус

RePack

jed

!!Акция!!

Alien_Rage

RePack

fifa19

RePack

Assassins Creed: Odyssey

RePack

NEED FOR SPEED™ PAYBACK

4 сезон

9 сезон

Бесстыжие 9 сезон

Все сериалы

все сериалы на PB.wtf

RePack

FAR CRY 5
  

Последний неандерталец / Ao, le dernier Neandertal (Жак Малатье) [2010, приключения,история, BDRip 1080p by msltel] 2 x DVO pb.wtf

Последний неандерталец через торрент pb.wtf

Размер: 8.49 GB | Добавлен: 4 года 1 мес. назад | Торрент скачан:103 раза
Скачать  

01-09-2016 07:49 Последний неандерталец Скачать торрент  

Название: Последний неандерталец​
Оригинальное название: Ao, le dernier Neandertal
Год выпуска: 2010
Страна: Франция
Жанр: приключения,история
Продолжительность: 01:23:44
Перевод: профессиональный двухголосый

Режиссёр: Жак Малатье

В ролях: Агие, Хелми Дриди, Илиан Иванов, Весела Казакова, Сара Малатье, Аруна Шилдс, Саймон Пол Саттон, Явор Веселинов

Описание: Речь пойдёт о последнем неандертальце, который вынужден отправиться в далёкое путешествие, чтобы выжить. Все его соплеменники погибли, он потерял жену и ребёнка. И вот он пробирается из суровых условий северных широт в южные земли. В пути его ждут жестокие схватки с дикими зверями, а на новых землях - не менее жестокое соперничество с местными племенами...



Качество: BDRip 1080p Сравнение с исходником
Формат: MKV
Видео: MPEG-4 AVC, 12.7 Mбит/с, 1920x820, 24 кадр/с
Аудио 1: русский, AC3, 224 kbps, 2 ch, 48 kHz [профессиональный двухголосый, лицензия]
Аудио 2: русский, DTS, 768 kbps, 6 ch, 48 kHz [профессиональный двухголосый]
Аудио 3: французский, DTS, 768 kbps, 6 ch, 48 kHz [оригинал]
Субтитры 1: русские
Субтитры 2: английские
Общее
Уникальный идентификатор : 184238616560884907611827554389650054230 (0x8A9B111D63E32AB88608676AEBF41C56)
Полное имя : D:\Video\Последний неандерталец.2010.BDRip.1080p.mkv
Формат : Matroska
Версия формата : Version 4 / Version 2
Размер файла : 8,49 Гбайт
Продолжительность : 1 ч. 23 м.
Общий поток : 14,5 Мбит/сек
Дата кодирования : UTC 2016-09-01 03:42:41
Программа кодирования : mkvmerge v8.2.0 ('World of Adventure') 64bit
Библиотека кодирования : libebml v1.3.1 + libmatroska v1.4.2

Видео
Идентификатор : 1
Формат : AVC
Формат/Информация : Advanced Video Codec
Профиль формата : High@L4.1
Параметр CABAC формата : Да
Параметр ReFrames формата : 4 кадра
Идентификатор кодека : V_MPEG4/ISO/AVC
Продолжительность : 1 ч. 23 м.
Битрейт : 12,7 Мбит/сек
Ширина : 1920 пикселей
Высота : 820 пикселей
Соотношение сторон : 2,35:1
Режим частоты кадров : Постоянный
Частота кадров : 24,000 кадра/сек
Цветовое пространство : YUV
Субдискретизация насыщенности : 4:2:0
Битовая глубина : 8 бит
Тип развёртки : Прогрессивная
Бит/(Пиксели*Кадры) : 0.337
Размер потока : 7,46 Гбайт (88%)
Библиотека кодирования : x264 core 146 r2538 121396c
Настройки программы : cabac=1 / ref=4 / deblock=1:-1:-1 / analyse=0x3:0x113 / me=umh / subme=10 / psy=1 / psy_rd=1.00:0.15 / mixed_ref=1 / me_range=32 / chroma_me=1 / trellis=2 / 8x8dct=1 / cqm=0 / deadzone=21,11 / fast_pskip=1 / chroma_qp_offset=-3 / threads=6 / lookahead_threads=1 / sliced_threads=0 / nr=0 / decimate=1 / interlaced=0 / bluray_compat=0 / constrained_intra=0 / bframes=9 / b_pyramid=2 / b_adapt=2 / b_bias=0 / direct=1 / weightb=1 / open_gop=0 / weightp=2 / keyint=230 / keyint_min=23 / scenecut=40 / intra_refresh=0 / rc_lookahead=40 / rc=crf / mbtree=0 / crf=18.0 / qcomp=0.60 / qpmin=0 / qpmax=69 / qpstep=4 / vbv_maxrate=40000 / vbv_bufsize=50000 / crf_max=0.0 / nal_hrd=none / filler=0 / ip_ratio=1.40 / pb_ratio=1.30 / aq=1:1.00
Язык : French
Default : Да
Forced : Нет

Аудио #1
Идентификатор : 2
Формат : AC-3
Формат/Информация : Audio Coding 3
Расширение режима : CM (complete main)
Параметр Endianness формата : Big
Идентификатор кодека : A_AC3
Продолжительность : 1 ч. 23 м.
Вид битрейта : Постоянный
Битрейт : 224 Кбит/сек
Каналы : 2 канала
Расположение каналов : Front: L R
Частота : 48,0 КГц
Частота кадров : 31,250 кадров/сек (1536 spf)
Метод сжатия : С потерями
Размер потока : 134 Мбайт (2%)
Заголовок : DVO (лицензия)
Язык : Russian
Default : Да
Forced : Нет

Аудио #2
Идентификатор : 3
Формат : DTS
Формат/Информация : Digital Theater Systems
Режим : 16
Параметр Endianness формата : Big
Идентификатор кодека : A_DTS
Продолжительность : 1 ч. 23 м.
Вид битрейта : Постоянный
Битрейт : 768 Кбит/сек
Каналы : 6 каналов
Расположение каналов : Front: L C R, Side: L R, LFE
Частота : 48,0 КГц
Частота кадров : 93,750 кадра/сек (512 spf)
Битовая глубина : 16 бит
Метод сжатия : С потерями
Размер потока : 460 Мбайт (5%)
Заголовок : DVO
Язык : Russian
Default : Нет
Forced : Нет

Аудио #3
Идентификатор : 4
Формат : DTS
Формат/Информация : Digital Theater Systems
Профиль формата : ES Matrix / Core
Режим : 16
Параметр Endianness формата : Big
Идентификатор кодека : A_DTS
Продолжительность : 1 ч. 23 м.
Вид битрейта : Постоянный
Битрейт : 768 Кбит/сек
Каналы : 7 каналов / 6 каналов
Расположение каналов : Front: L C R, Side: L R, Back: C, LFE / Front: L C R, Side: L R, LFE
Частота : 48,0 КГц
Частота кадров : 93,750 кадра/сек (512 spf)
Битовая глубина : 16 бит
Метод сжатия : С потерями
Размер потока : 460 Мбайт (5%)
Заголовок : original
Язык : French
Default : Нет
Forced : Нет

Текст #1
Идентификатор : 5
Формат : UTF-8
Идентификатор кодека : S_TEXT/UTF8
Идентификатор кодека/Информация : UTF-8 Plain Text
Продолжительность : 1 ч. 19 м.
Битрейт : 18 бит/сек
Count of elements : 180
Размер потока : 10,5 Кбайт (0%)
Заголовок : русские
Язык : Russian
Default : Нет
Forced : Нет

Текст #2
Идентификатор : 6
Формат : UTF-8
Идентификатор кодека : S_TEXT/UTF8
Идентификатор кодека/Информация : UTF-8 Plain Text
Продолжительность : 1 ч. 23 м.
Битрейт : 10 бит/сек
Count of elements : 220
Размер потока : 6,36 Кбайт (0%)
Заголовок : английские
Язык : English
Default : Нет
Forced : Нет
pb.wtf



Скачать Последний неандерталец через торрент http://s019.radikal.ru/i616/1608/fa/0f2c9667a41a.jpg Скачать фильм Последний неандерталец через торрент бесплантно в хорошем качестве Описание: Речь пойдёт о последнем неандертальце, который вынужден отправиться в далёкое путешествие, чтобы выжить. Все его соплеменники ... 7.5 10 4
Info! Золотая раздача, скачанное не засчитывается.
Торрент: Зарегистрирован [2016-09-01 07:49] · скачан: 103 раз
Статус: √ проверено
Размер: 8.49 GB
Как cкачать? Как скачать Последний неандерталец через торрент | qTorrent

% Раздел Тема Автор DL S | L
Фильмы [HD 720p, 1080p] (Хороший звук DUB, MVO) [ 3.45 GB ] Последний неандерталец / Ao le dernier Neandertal [2010 история BDRip 720p by msltel] 2 x DVO msltel Скачать
1 | 0

28-11-2019 20:33  

Отключить всю рекламу на сайте

01-09-2016 09:40 Последний неандерталец Скачать торрент  

знаменитый неандертальский боксер на первом скринеpb.wtf



01-09-2016 12:09 Последний неандерталец Скачать торрент  

Я бы даже сказал 10 кратный чемпион неандертальской страны!pb.wtf



    Дорогой пользователь! Огромная просьба, поблагодарите релизера, оцените раздачу и оставьте свои комментарий, если Вы скачали Последний неандерталец через торрент бесплатно! Внесите свою лепту в развитие PiratBit!
    Комментировать посты могут только пользователи прошедшие не сложную регистрацию
    Показать сообщения:    

    Последний неандерталец через торрент
    Скачать бесплатно Последний неандерталец
    Последний неандерталец скачать торрент
    Последний неандерталец смотреть онлайн
    Cкачать фильм Последний неандерталец бесплатно
    Последний неандерталец скачать торрент в хорошем качестве
    Последний неандерталец смотреть онлайн бесплатно в хорошем качестве


    Вы не можете начинать темы
    Вы не можете отвечать на сообщения
    Вы не можете редактировать свои сообщения
    Вы не можете удалять свои сообщения
    Вы не можете голосовать в опросах
    Вы не можете прикреплять файлы к сообщениям
    Вы можете скачивать файлы