Ссылка на приватное зеркало всего за 1$. Внимание количество ограничено!!!

iTunes

iTunes

iTunes

1

iTunes

iTunes

iTunes

WEBRip

iTunes

30
pack

$ от Little Big

ВАЖНО

!!Акция!!

Alien_RageХит недели

RePack

Resident Evil 21

ИГРА 18+

pack

RePack

jed

!!Акция!!

Alien_Rage

RePack

fifa19

RePack

Assassins Creed: Odyssey

RePack

NEED FOR SPEED™ PAYBACK

4 сезон

9 сезон

Бесстыжие 9 сезон

Все сериалы

все сериалы на PB.wtf

RePack

FAR CRY 5
  

Шик (Бахтиер Худойназаров) [2003 г., Драма, комедия, DVDRip by _Один_777] pb.wtf

Шик через торрент pb.wtf

Размер: 1.46 GB | Добавлен: 3 года 11 мес. назад | Торрент скачан:22 раза
Скачать  

01-09-2016 08:46 Шик Скачать торрент  

Шик

Год выпуска: 2003
Страна: Россия, Германия, Франция, Италия, Украина / Централ Партнершип, Orly Films, Pandora Filmproduktion GmbH, Paradis Films, Poetiche Cinematografiche, VISS
Жанр: Драма, комедия
Продолжительность: 01:32:15
Cубтитры: нет

Режиссер: Бахтиер Худойназаров

В ролях: Александр Яценко, Артур Смольянинов, Иван Кокорин, Ингеборга Дапкунайте, Андрей Панин, Николай Фоменко, Руслана Рухадзе, Сергей Апрельский, Евгений Воскресенский, Игорь Письменный...

Описание: Неподалеку от большого портового города жили-были три закадычных друга, ребята из бедных семей. Заглядываясь на роскошные витрины дорогих магазинов и проплывающие мимо них огромные корабли, они мечтали о таком же богатстве и счастье. И вот однажды друзья увидели в модном «бутике» костюм от «Гуччи» - само воплощение крутости и шика.
Всеми правдами и неправдами они скопили на него деньги и попытались с его помощью добиться успеха в жизни. Однако ни счастья, ни богатства «обновка» им не принесла - напротив, ободренные первой удачей, ребята навлекли на свою голову большие беды…


Сэмпл: http://sendfile.su/1261655


Качество: DVDRip
Формат: AVI
Видео кодек: XviD
Аудио кодек: АС3
Видео: 704x384 (1.83:1), 25 fps, XviD build 73 ~1811 kbps avg, 0.27 bit/pixel
Аудио: 48 kHz, AC3 Dolby Digital, 3/2 (L,C,R,l,r) + LFE ch, ~448 kbps
Общее
Полное имя : D:\Shik.2003.DVDRip.1400.[Один 777].avi
Формат : AVI
Формат/Информация : Audio Video Interleave
Размер файла : 1,46 Гбайт
Продолжительность : 1 ч. 32 м.
Общий поток : 2269 Кбит/сек
Программа кодирования : VirtualDubMod 1.5.10.3 | www.virtualdub-fr.org || (build 2550/release)
Библиотека кодирования : VirtualDubMod build 2550/release

Видео
Идентификатор : 0
Формат : MPEG-4 Visual
Профиль формата : Advanced Simple@L5
Параметр BVOP формата : 1
Параметр QPel формата : Нет
Параметр GMC формата : Без точки перехода
Параметр матрицы формата : Default (H.263)
Идентификатор кодека : XVID
Идентификатор кодека/Подсказка : XviD
Продолжительность : 1 ч. 32 м.
Битрейт : 1812 Кбит/сек
Ширина : 704 пикселя
Высота : 384 пикселя
Соотношение сторон : 1,85:1
Частота кадров : 25,000 кадров/сек
Цветовое пространство : YUV
Субдискретизация насыщенности : 4:2:0
Битовая глубина : 8 бит
Тип развёртки : Прогрессивная
Метод сжатия : С потерями
Бит/(Пиксели*Кадры) : 0.268
Размер потока : 1,17 Гбайт (80%)
Библиотека кодирования : XviD 73

Аудио
Идентификатор : 1
Формат : AC-3
Формат/Информация : Audio Coding 3
Расширение режима : CM (complete main)
Параметр Endianness формата : Big
Идентификатор кодека : 2000
Продолжительность : 1 ч. 32 м.
Вид битрейта : Постоянный
Битрейт : 448 Кбит/сек
Каналы : 6 каналов
Расположение каналов : Front: L C R, Side: L R, LFE
Частота : 48,0 КГц
Частота кадров : 31,250 кадров/сек (1536 spf)
Метод сжатия : С потерями
Размер потока : 296 Мбайт (20%)
Выравнивание : Разделение по промежуткам
Продолжительность промежутка : 40 мс. (1,00 видеокадр)
Время предзагрузки промежутка : 500 мс.
pb.wtf



Скачать Шик через торрент http://s019.radikal.ru/i634/1609/5c/96ceafbec1e9.jpg Скачать фильм Шик через торрент бесплантно в хорошем качестве Описание: Неподалеку от большого портового города жили-были три закадычных друга, ребята из бедных семей. Заглядываясь на роскошные витрины ... 10 10 3
Info! Золотая раздача, скачанное не засчитывается.
Торрент: Зарегистрирован [2016-09-01 08:46] · скачан: 22 раз
Статус: √ проверено
Размер: 1.46 GB
Как cкачать? Как скачать Шик через торрент | qTorrent

% Раздел Тема Автор DL S | L
Паки полных порно фильмов [ 25.23 GB ] Порношик. Самая полная антология / Pornochic. Most complete anthology [2003-2011 Feature Stockings Nylon Lingerie Fetish Straight Blowjob Anal DVDRip] ogrizok Скачать
1 | 0
Большие сиськи [ 483 MB ] Шикарная сисястая снегурка подарила себя двум парням / Nicole Aniston [2011 BigTits SiteRip] orton Скачать
1 | 0
Русские порно ролики [ 160 MB ] Шикарная худенькая девчушка очень рада своевременному приходу друга [2006 All Sex Oral Teen CamRip] peek-in Скачать
1 | 0
HD ролики [ 528 MB ] Шикарнейшая малолеточка играется со своими прелестями / Sunna [2012 Teen Nude Teasing Closeups HDTV] Azazele Скачать
1 | 0
Русские порно ролики [ 290 MB ] РУССКАЯ Брии Олсон [2008 All sex Teens SATRip] Anonymous Скачать
1 | 0
Японские фильмы [ 873 MB ] Mugen: Egals Vol. 17 / Взрослая Девочка 17 [MW-15] [2009 Oral Big Tits Sexy Leg Creampie DVDRip] Красотка с шикарными огромными сиськами в Новинке 01/09/2009! Shmel Скачать
1 | 0
Русское любительское видео [ 97 MB ] Брюнетка с шикарной грудью скачет на члене !!! [2011 Teens Amateur Hardcore Big Tits] skipper Скачать
1 | 0

28-11-2019 20:33  

Отключить всю рекламу на сайте

    Дорогой пользователь! Огромная просьба, поблагодарите релизера, оцените раздачу и оставьте свои комментарий, если Вы скачали Шик через торрент бесплатно! Внесите свою лепту в развитие PiratBit!
    Комментировать посты могут только пользователи прошедшие не сложную регистрацию
    Показать сообщения:    

    Шик через торрент
    Скачать бесплатно Шик
    Шик скачать торрент
    Шик смотреть онлайн
    Cкачать фильм Шик бесплатно
    Шик скачать торрент в хорошем качестве
    Шик смотреть онлайн бесплатно в хорошем качестве


    Вы не можете начинать темы
    Вы не можете отвечать на сообщения
    Вы не можете редактировать свои сообщения
    Вы не можете удалять свои сообщения
    Вы не можете голосовать в опросах
    Вы не можете прикреплять файлы к сообщениям
    Вы можете скачивать файлы