Ссылка на приватное зеркало нашего сайта всего за 1$. Внимание количество ограничено!!!

2 сезон

iTunes

1 сезон

1

2 сезон

2 сезон

iTunes

1 сезон

RePack

30

Ultimate

ВАЖНО

ИГРА 18+

pack

RePack

MK11
pack

Забери бонус

RePack

jed

!!Акция!!

Alien_Rage

RePack

fifa19

RePack

Assassins Creed: Odyssey

RePack

NEED FOR SPEED™ PAYBACK

4 сезон

9 сезон

Бесстыжие 9 сезон

Все сериалы

все сериалы на PB.wtf

RePack

FAR CRY 5
  

Носферату, симфония ужаса / Nosferatu, eine Symphonie des Grauens (Фридрих Вильгельм Мурнау) [1922, Ужасы, Дектектив, BDRemux 1080p] Sub pb.wtf

Скачать  

01-09-2016 10:55 Носферату, симфония ужаса Скачать торрент  

Информация о фильме
Название: Носферату, симфония ужаса
Оригинальное название: Nosferatu, eine Symphonie des Grauens
Год выхода: 1922
Жанр: Ужасы, Дектектив
Страна: Германия
Продолжительность: 01:35:11
Перевод: Субтитры
Субтитры: русские, английские

Режиссер: Фридрих Вильгельм Мурнау

В ролях: Макс Шрек, Густав фон Вангенхайм, Грета Шрёдер, Георг Г. Шнель, Рут Ландшорфф, Густав Ботц, Александр Гранах, Джон Готтовт, Макс Немец, Вольфган Хайнц, Альберт Венор

Описание:

Молодой клерк Хуттер из Бремена первой трети XIX века отправляется за тридевять земель, в карпатские леса, к инфернальному графу Орлоку, владельцу замка, решившему перебраться в крупный город. Гость выясняет, что Орлок, известный и как Носферату, — вампир, и от его заражающего укуса Хуттера спасает лишь супруга Нина, сверхъестественно сильно влюблённая в скромного и безвольного служащего конторы по продаже недвижимого имущества. Именно она понимает, какое зло несёт в себе мрачный граф.



Файл

Качество: BDRemux 1080p
Формат: MKV
Видео: MPEG-4 AVC Video 34838 kbps 1080p / 23,976 fps / 16:9 / High Profile 4.1
Аудио 1: LPCM Audio 2.0 / 48 kHz / 2304 kbps / 24-bit
Аудио 2: DTS-HD Master Audio 5.1 / 48 kHz / 3912 kbps / 24-bit (DTS Core: 5.1 / 48 kHz / 1509 kbps / 24-bit)
Аудио 3: EnglishDolby Digital Audio 2.0 / 48 kHz / 192 kbps - комментарии (David Kalat)
Аудио 4: EnglishDolby Digital Audio 2.0 / 48 kHz / 192 kbps - комментарии (R. Dixon Smith & Brad Stevens)

General

Unique ID : 190196131147426501770161440397236682517 (0x8F167142FBE03D79A2AE5097A598BF15)

Complete name : J:Nosferatu, eine Symphonie des Grauens 1922 1080p Bluray AVC Remux.mkv

Format : Matroska

Format version : Version 4 / Version 2

File size : 27.6 GiB

Duration : 1h 35mn

Overall bit rate mode : Variable

Overall bit rate : 41.4 Mbps

Encoded date : UTC 2013-11-24 06:04:49

Writing application : mkvmerge v6.4.1 ('Omega Point') built on Sep 16 2013 22:05:10

Writing library : libebml v1.3.0 + libmatroska v1.4.1

Video

ID : 1

Format : AVC

Format/Info : Advanced Video Codec

Format profile : High@L4.1

Format settings, CABAC : Yes

Format settings, ReFrames : 3 frames

Codec ID : V_MPEG4/ISO/AVC

Duration : 1h 35mn

Bit rate mode : Variable

Nominal bit rate : 35.0 Mbps

Maximum bit rate : 38.0 Mbps

Width : 1 920 pixels

Height : 1 080 pixels

Display aspect ratio : 16:9

Frame rate mode : Constant

Frame rate : 23.976 fps

Color space : YUV

Chroma subsampling : 4:2:0

Bit depth : 8 bits

Scan type : Progressive

Bits/(Pixel*Frame) : 0.704

Writing library : x264 core 128 r2216 198a7ea

Encoding settings : cabac=1 / ref=4 / deblock=0:-1:-1 / analyse=0x3:0x133 / me=umh / subme=10 / psy=1 / psy_rd=1.00:0.15 / mixed_ref=1 / me_range=24 / chroma_me=1 / trellis=2 / 8x8dct=1 / cqm=0 / deadzone=21,11 / fast_pskip=1 / chroma_qp_offset=-3 / threads=12 / lookahead_threads=2 / sliced_threads=0 / slices=4 / nr=0 / decimate=1 / interlaced=0 / bluray_compat=1 / constrained_intra=0 / bframes=3 / b_pyramid=1 / b_adapt=2 / b_bias=0 / direct=3 / weightb=1 / open_gop=1 / weightp=1 / keyint=24 / keyint_min=1 / scenecut=40 / intra_refresh=0 / rc_lookahead=24 / rc=2pass / mbtree=1 / bitrate=35000 / ratetol=1.0 / qcomp=0.60 / qpmin=0 / qpmax=69 / qpstep=4 / cplxblur=20.0 / qblur=0.5 / vbv_maxrate=38000 / vbv_bufsize=28500 / nal_hrd=vbr / ip_ratio=1.40 / aq=1:1.00

Default : Yes

Forced : No

Color primaries : BT.709

Transfer characteristics : BT.709

Matrix coefficients : BT.709

Audio #1

ID : 2

Format : PCM

Codec ID : A_PCM/INT/LIT

Duration : 1h 35mn

Bit rate mode : Constant

Channel(s) : 2 channels

Sampling rate : 48.0 KHz

Bit depth : 24 bits

Default : Yes

Forced : No

Audio #2

ID : 3

Format : DTS

Format/Info : Digital Theater Systems

Format profile : MA / Core

Mode : 16

Format settings, Endianness : Big

Codec ID : A_DTS

Duration : 1h 35mn

Bit rate mode : Variable

Bit rate : Unknown / 1 509 Kbps

Channel(s) : 6 channels

Channel positions : Front: L C R, Side: L R, LFE

Sampling rate : 48.0 KHz

Bit depth : 24 bits

Compression mode : Lossless / Lossy

Default : No

Forced : No

Audio #3

ID : 4

Format : AC-3

Format/Info : Audio Coding 3

Mode extension : CM (complete main)

Format settings, Endianness : Big

Codec ID : A_AC3

Duration : 1h 35mn

Bit rate mode : Constant

Bit rate : 192 Kbps

Channel(s) : 2 channels

Channel positions : Front: L R

Sampling rate : 48.0 KHz

Bit depth : 16 bits

Compression mode : Lossy

Stream size : 131 MiB (0%)

Title : Audio Commentary (David Kalat)

Language : English

Default : No

Forced : No

Audio #4

ID : 5

Format : AC-3

Format/Info : Audio Coding 3

Mode extension : CM (complete main)

Format settings, Endianness : Big

Codec ID : A_AC3

Duration : 1h 35mn

Bit rate mode : Constant

Bit rate : 192 Kbps

Channel(s) : 2 channels

Channel positions : Front: L R

Sampling rate : 48.0 KHz

Bit depth : 16 bits

Compression mode : Lossy

Stream size : 131 MiB (0%)

Title : Audio Commentary (R. Dixon Smith and Brad Stevens)

Language : English

Default : No

Forced : No

Text #1

ID : 6

Format : UTF-8

Codec ID : S_TEXT/UTF8

Codec ID/Info : UTF-8 Plain Text

Language : Russian

Default : Yes

Forced : No

Text #2

ID : 7

Format : UTF-8

Codec ID : S_TEXT/UTF8

Codec ID/Info : UTF-8 Plain Text

Language : English

Default : No

Forced : No
pb.wtf



Торрент не зареган: Не зарегистрирован ||
Добавлен: 2016-09-01 10:49
Скачано: 0 раз
% Раздел Тема Автор DL S | L
Фильмы без перевода [ 27.55 GB ] Носферату симфония ужаса / Nosferatu eine Symphonie des Grauens [1922 BDRemux / Sub] shuller Скачать
1 | 0
Классика зарубежного кино [ 1.46 GB ] Носферату симфония ужаса / Nosferatu eine Symphonie des Grauens [1922 BDRip] Sub Ворон Скачать
1 | 0

28-11-2019 20:33  

Отключить всю рекламу на сайте

    Дорогой пользователь! Огромная просьба, поблагодарите релизера, оцените раздачу и оставьте свои комментарий, если Вы скачали Носферату, симфония ужаса через торрент бесплатно! Внесите свою лепту в развитие PiratBit!
    Комментировать посты могут только пользователи прошедшие не сложную регистрацию
    Показать сообщения:    

    Носферату, симфония ужаса через торрент
    Скачать бесплатно Носферату, симфония ужаса
    Носферату, симфония ужаса скачать торрент
    Носферату, симфония ужаса смотреть онлайн
    Cкачать фильм Носферату, симфония ужаса бесплатно
    Носферату, симфония ужаса скачать торрент в хорошем качестве
    Носферату, симфония ужаса смотреть онлайн бесплатно в хорошем качестве


    Вы не можете начинать темы
    Вы не можете отвечать на сообщения
    Вы не можете редактировать свои сообщения
    Вы не можете удалять свои сообщения
    Вы не можете голосовать в опросах
    Вы не можете прикреплять файлы к сообщениям
    Вы можете скачивать файлы