Ссылка на приватное зеркало нашего сайта всего за 1$. Внимание количество ограничено!!!

2 сезон

iTunes

1 сезон

1

2 сезон

2 сезон

iTunes

1 сезон

RePack

30

Ultimate

ВАЖНО

ИГРА 18+

pack

RePack

MK11
pack

Забери бонус

RePack

jed

!!Акция!!

Alien_Rage

RePack

fifa19

RePack

Assassins Creed: Odyssey

RePack

NEED FOR SPEED™ PAYBACK

4 сезон

9 сезон

Бесстыжие 9 сезон

Все сериалы

все сериалы на PB.wtf

RePack

FAR CRY 5
  

Первый мститель: Противостояние / Captain America: Civil War (Энтони Руссо, Джо Руссо) [2016, Фантастика, боевик, приключения, BDRemux 1080p] от ExKinoRay / iTunes, MVO pb.wtf

Первый мститель: Противостояние через торрент pb.wtf

Размер: 35.34 GB | Добавлен: 4 года 3 мес. назад | Торрент скачан:307 раз
Скачать  

01-09-2016 14:04 Первый мститель: Противостояние Скачать торрент  

Информация о фильме
Название: Первый мститель: Противостояние
Оригинальное название: Captain America: Civil War
Год выхода: 2016
Жанр: Фантастика, боевик, приключения
Страна: США
Студия: Marvel Entertainment, Marvel Studios Inc., Studio Babelsberg
Продолжительность: 02:27:41
Переводы:
#1: Дублированный | iTunes
#2: Профессиональный многоголосый (закадровый) | FocusStudio
Субтитры: Русские (полные, форсированные), английские (full, SDH)

Режиссер: Энтони Руссо, Джо Руссо

В ролях: Крис Эванс, Роберт Дауни мл., Скарлетт Йоханссон, Себастьян Стэн, Энтони Маки, Дон Чидл, Джереми Реннер, Чэдвик Боузмэн, Пол Беттани, Элизабет Олсен

Описание:

После того, как Мстители помешали космическому засланцу отжать кусок исконных земель у мирного восточноевропейского государства и совершили еще множество глупых подвигов, они успешно приватизировали мир во всем мире. Однако, не все готовы терпеть супергеройские методы, зачастую имеющие разрушительные последствия и влекущие за собой человеческие жертвы. Стремясь урегулировать деятельность людей с расширенными возможностями и вынуждая их работать на государственные службы, правительство вводит "Акт о регистрации супергероев". Стив Роджерс считает этот занимательный документ прямым ограничением своих прав и свобод. Он выступает против нового порядка. Тони Старк, напротив, поддерживает любую форму контроля. У каждого из них находятся свои сторонники в среде супергероев. Коренное разногласие в этом принципиальном вопросе приводит к идеологическому расколу Мстителей, а затем и к открытому конфликту между двумя супергеройскими фракциями. И пока Капитан Америка и Железный человек устраивают групповые дуэли, некий арийский иллюминат Гельмут Земо претворяет в жизнь свой коварный план, пользуясь досадными трениями между величайшими героями Земли.



Файл

Качество: BDRemux 1080p
Формат: MKV
Видео: MPEG-4, 1920x1080, 23.8 Mbit/s, 23.976 fps
Аудио #01: 48 kHz, AC3, 5.1, 384 Kbps | Дублированный, iTunes |
Аудио #02: 48 kHz, AC3, 5.1, 640 Kbps | Профессиональный многоголосый (закадровый) | FocusStudio |
Аудио #03: 48 kHz, DTS-HD MA, 7.1, 4724 Kbps | Профессиональный многоголосый (закадровый) | FocusStudio |
Аудио #04: 48 kHz, DTS-HD MA, 7.1, 4699 kbps | Оригинал |

General

Unique ID : 201283755285447249838569163739755651384 (0x976DD7566985FA5D8ED5F12681232138)

Complete name : G:VideoSTREAMCaptain.America.Civil.War.2016.D.MVO.BDREMUX.1080p.ExKinoRay.mkv

Format : Matroska

Format version : Version 4 / Version 2

File size : 35.3 GiB

Duration : 2 h 27 min

Overall bit rate mode : Variable

Overall bit rate : 34.3 Mb/s

Movie name : ***селезень***

Encoded date : UTC 2016-09-01 12:54:44

Writing application : mkvmerge v8.3.0 ('Over the Horizon') 64bit

Writing library : libebml v1.3.1 + libmatroska v1.4.2

Video

ID : 1

Format : AVC

Format/Info : Advanced Video Codec

Format profile : High@L4.1

Format settings, CABAC : Yes

Format settings, ReFrames : 4 frames

Format settings, GOP : M=3, N=12

Codec ID : V_MPEG4/ISO/AVC

Duration : 2 h 27 min

Bit rate mode : Variable

Bit rate : 23.8 Mb/s

Maximum bit rate : 35.0 Mb/s

Width : 1 920 pixels

Height : 1 080 pixels

Display aspect ratio : 16:9

Frame rate mode : Constant

Frame rate : 23.976 (24000/1001) FPS

Color space : YUV

Chroma subsampling : 4:2:0

Bit depth : 8 bits

Scan type : Progressive

Bits/(Pixel*Frame) : 0.479

Stream size : 24.6 GiB (69%)

Title : build by ***селезень***

Language : English

Default : Yes

Forced : No

Audio #1

ID : 2

Format : AC-3

Format/Info : Audio Coding 3

Mode extension : CM (complete main)

Format settings, Endianness : Big

Codec ID : A_AC3

Duration : 2 h 27 min

Bit rate mode : Constant

Bit rate : 384 kb/s

Channel(s) : 6 channels

Channel positions : Front: L C R, Side: L R, LFE

Sampling rate : 48.0 kHz

Frame rate : 31.250 FPS (1536 spf)

Compression mode : Lossy

Delay relative to video : 800 ms

Stream size : 406 MiB (1%)

Title : DUB [iTunes]

Language : Russian

Default : Yes

Forced : No

Audio #2

ID : 3

Format : AC-3

Format/Info : Audio Coding 3

Mode extension : CM (complete main)

Format settings, Endianness : Big

Codec ID : A_AC3

Duration : 2 h 27 min

Bit rate mode : Constant

Bit rate : 640 kb/s

Channel(s) : 6 channels

Channel positions : Front: L C R, Side: L R, LFE

Sampling rate : 48.0 kHz

Frame rate : 31.250 FPS (1536 spf)

Compression mode : Lossy

Stream size : 676 MiB (2%)

Title : MVO-AC3 [FocusStudio]

Language : Russian

Default : No

Forced : No

Audio #3

ID : 4

Format : DTS

Format/Info : Digital Theater Systems

Format profile : MA / Core

Mode : 16

Format settings, Endianness : Big

Codec ID : A_DTS

Duration : 2 h 27 min

Bit rate mode : Variable / Constant

Bit rate : 4 724 kb/s / 1 509 kb/s

Channel(s) : 8 channels / 6 channels

Channel positions : Front: L C R, Side: L R, Back: L R, LFE / Front: L C R, Side: L R, LFE

Sampling rate : 48.0 kHz

Frame rate : 93.750 FPS (512 spf)

Bit depth : 24 bits

Compression mode : Lossless / Lossy

Stream size : 4.87 GiB (14%)

Title : MVO-DTS-HD MA [FocusStudio]

Language : Russian

Default : No

Forced : No

Audio #4

ID : 5

Format : DTS

Format/Info : Digital Theater Systems

Format profile : MA / Core

Mode : 16

Format settings, Endianness : Big

Codec ID : A_DTS

Duration : 2 h 27 min

Bit rate mode : Variable / Constant

Bit rate : 4 699 kb/s / 1 509 kb/s

Channel(s) : 8 channels / 6 channels

Channel positions : Front: L C R, Side: L R, Back: L R, LFE / Front: L C R, Side: L R, LFE

Sampling rate : 48.0 kHz

Frame rate : 93.750 FPS (512 spf)

Bit depth : 24 bits

Compression mode : Lossless / Lossy

Stream size : 4.85 GiB (14%)

Title : Original

Language : English

Default : No

Forced : No

Text #1

ID : 6

Format : UTF-8

Codec ID : S_TEXT/UTF8

Codec ID/Info : UTF-8 Plain Text

Duration : 1 h 44 min

Bit rate : 2 b/s

Count of elements : 59

Stream size : 1.91 KiB (0%)

Title : Forced

Language : Russian

Default : Yes

Forced : No

Text #2

ID : 7

Format : UTF-8

Codec ID : S_TEXT/UTF8

Codec ID/Info : UTF-8 Plain Text

Duration : 2 h 25 min

Bit rate : 74 b/s

Count of elements : 1722

Stream size : 80.1 KiB (0%)

Title : Full

Language : Russian

Default : No

Forced : No

Text #3

ID : 8

Format : UTF-8

Codec ID : S_TEXT/UTF8

Codec ID/Info : UTF-8 Plain Text

Duration : 2 h 25 min

Bit rate : 50 b/s

Count of elements : 1865

Stream size : 54.2 KiB (0%)

Title : Full

Language : English

Default : No

Forced : No

Text #4

ID : 9

Format : UTF-8

Codec ID : S_TEXT/UTF8

Codec ID/Info : UTF-8 Plain Text

Duration : 2 h 26 min

Bit rate : 55 b/s

Count of elements : 2105

Stream size : 59.1 KiB (0%)

Title : SDH

Language : English

Default : No

Forced : No

Menu

00:00:00.000 : en:Chapter 1

00:09:01.958 : en:Chapter 2

00:13:04.993 : en:Chapter 3

00:21:03.345 : en:Chapter 4

00:27:53.380 : en:Chapter 5

00:31:57.290 : en:Chapter 6

00:35:08.398 : en:Chapter 7

00:42:58.451 : en:Chapter 8

00:52:04.621 : en:Chapter 9

01:05:39.102 : en:Chapter 10

01:16:41.639 : en:Chapter 11

01:22:28.777 : en:Chapter 12

01:29:29.489 : en:Chapter 13

01:34:09.769 : en:Chapter 14

01:45:38.582 : en:Chapter 15

01:55:54.322 : en:Chapter 16

02:02:35.056 : en:Chapter 17

02:12:14.176 : en:Chapter 18

02:18:29.384 : en:Chapter 19
Релиз от: Автор релиза: pb.wtf



Скачать Первый мститель: Противостояние через торрент http://s019.radikal.ru/i604/1608/4f/19d1ad3acf72.png Скачать фильм Первый мститель: Противостояние через торрент бесплантно в хорошем качестве Описание:После того, как Мстители помешали космическому засланцу отжать кусок исконных земель у мирного восточноевропейского государства и ... 9.9 10 16
Info! Золотая раздача, скачанное не засчитывается.
Торрент: Зарегистрирован [2016-09-01 14:04] · скачан: 307 раз
Статус: √ проверено
Размер: 35.34 GB
Как cкачать? Как скачать Первый мститель: Противостояние через торрент | qTorrent

28-11-2019 20:33  

Отключить всю рекламу на сайте

    Дорогой пользователь! Огромная просьба, поблагодарите релизера, оцените раздачу и оставьте свои комментарий, если Вы скачали Первый мститель: Противостояние через торрент бесплатно! Внесите свою лепту в развитие PiratBit!
    Комментировать посты могут только пользователи прошедшие не сложную регистрацию
    Показать сообщения:    

    Первый мститель: Противостояние через торрент
    Скачать бесплатно Первый мститель: Противостояние
    Первый мститель: Противостояние скачать торрент
    Первый мститель: Противостояние смотреть онлайн
    Cкачать фильм Первый мститель: Противостояние бесплатно
    Первый мститель: Противостояние скачать торрент в хорошем качестве
    Первый мститель: Противостояние смотреть онлайн бесплатно в хорошем качестве


    Вы не можете начинать темы
    Вы не можете отвечать на сообщения
    Вы не можете редактировать свои сообщения
    Вы не можете удалять свои сообщения
    Вы не можете голосовать в опросах
    Вы не можете прикреплять файлы к сообщениям
    Вы можете скачивать файлы