Мега распродажа FORZA HORIZON 4 ULTIMATE+ВСЕ DLC+ОНЛАЙН всего за 499р. 349 руб. (супер цена). Внимание количество ограничено!!!

iTunes

1+1

iTunes

мы

iTunes

1

1 сезон

Чернобыль

1 сезон

Ральф против интернета

Лицензия

ПШазам

8 сезон

Игра престолов

Лицензия

30
pack

ВАЖНО

!!Акция!!

Alien_RageХит недели

RePack

Resident Evil 21

ИГРА 18+

pack

RePack

Metro:Exodus

!!Акция!!

Alien_Rage

RePack

fifa19

RePack

Assassins Creed: Odyssey

RePack

NEED FOR SPEED™ PAYBACK

3 сезон

9 сезон

Бесстыжие 9 сезон

Все сериалы

все сериалы на PB.wtf

RePack

FAR CRY 5
Ребята, катастрофически не хватает 2730р. для оплаты серверов за ИЮНЬ (всвязи с блокировками трафик упал в 3 раза), 1-2р., выручайте.
  

Дитя Макона / The Baby of Macon (Питер Гринуэй) [1993 г., драма, история, BDRip] MVO, VO pb.wtf

Дитя Макона через торрент pb.wtf

Размер: 2.18 GB | Добавлен: 2 года 10 мес. назад | Торрент скачан:40 раз
Скачать  

01-09-2016 15:02 Дитя Макона Скачать торрент  

Дитя Макона / The Baby of Macon
Год выпуска: 1993
Страна: Германия, Франция, Великобритания, Нидерланды, Бельгия
Жанр: драма, история
Продолжительность: 02:01:57
Перевод: Профессиональный (многоголосый), Любительский одноголосый (Л.Машинский)
Субтитры: Русские

Режиссер: Питер Гринуэй
Продюссер: Кеес Касандер, Кристоф Ханхейзер, Франк Хеншке
Сценарий: Питер Гринуэй

Премьера в мире: 11 сентября 1993



В ролях: Джулия Ормонд, Рэйф Файнс, Филип Стоун, Джонатан Лэйси, Дон Хендерсон, Селия Грегори, Джеф Нэттал, Джессика Хайнс, Кэтрин Хантер, Гэбриэлль Рейди

Описание: 17-й век. Театр. Перед публикой разыгрывается драма. Суть в том, что во времена смуты и голода пожилая женщина рожает чудесное дитя, хотя многие ожидают рождения чудовища.
Новорожденный мальчик так хорош собой, что его объявляют святым, чудесным ребенком. Вокруг него разгораются страсти; и церковь и семья используют его для достижения своих целей. И постепенно границы между спектаклем и реальностью стираются.

Качество: BDRip (THE_BABY_OF_MACON_BD_HDCLUB_BY_VOLSHEBNIK)
Формат: AVI
Видео кодек: XviD
Аудио кодек: AC3
Видео: XviD, 1708 Кбит/с, 720x304, 24 кадр/с
Аудио#1: AC3, 6 ch, 448 Кбит/с, 48 kHz | Профессиональный многоголосый (CP-Digital)
Аудио#2: AC3, 2 ch, 192 Кбит/с, 48 kHz | Любительский одноголосый (Л.Машинский)
Аудио#3: AC3, 2 ch, 192 Кбит/с, 48 kHz | Английский
Релиз от: Koenig
Общее
Полное имя : The.Baby.of.Macon.1993.BDRip.avi
Формат : AVI
Формат/Информация : Audio Video Interleave
Профиль формата : OpenDML
Размер файла : 2,18 Гбайт
Продолжительность : 2 ч. 1 м.
Общий поток : 2564 Кбит/сек
Программа кодирования : VirtualDubMod 1.5.10.2 (build 2540/release)
Библиотека кодирования : VirtualDubMod build 2540/release

Видео
Идентификатор : 0
Формат : MPEG-4 Visual
Профиль формата : Advanced Simple@L5
Параметр BVOP формата : 1
Параметр QPel формата : Нет
Параметр GMC формата : Без точки перехода
Параметр матрицы формата : Default (MPEG)
Идентификатор кодека : XVID
Идентификатор кодека/Подсказка : XviD
Продолжительность : 2 ч. 1 м.
Битрейт : 1708 Кбит/сек
Ширина : 720 пикселей
Высота : 304 пикселя
Соотношение сторон : 2,35:1
Частота кадров : 24,000 кадра/сек
Цветовое пространство : YUV
Субдискретизация насыщенности : 4:2:0
Битовая глубина : 8 бит
Тип развёртки : Прогрессивная
Метод сжатия : С потерями
Бит/(Пиксели*Кадры) : 0.325
Размер потока : 1,46 Гбайт (67%)
Библиотека кодирования : XviD 1.2.0.dev47 (UTC 2006-11-01)

Аудио #1
Идентификатор : 1
Формат : AC-3
Формат/Информация : Audio Coding 3
Расширение режима : CM (complete main)
Параметр Endianness формата : Big
Идентификатор кодека : 2000
Продолжительность : 2 ч. 1 м.
Вид битрейта : Постоянный
Битрейт : 448 Кбит/сек
Каналы : 6 каналов
Расположение каналов : Front: L C R, Side: L R, LFE
Частота : 48,0 КГц
Частота кадров : 31,250 кадров/сек (1536 spf)
Метод сжатия : С потерями
Размер потока : 391 Мбайт (17%)
Выравнивание : Разделение по промежуткам
Продолжительность промежутка : 42 мс. (1,00 видеокадр)
Время предзагрузки промежутка : 500 мс.

Аудио #2
Идентификатор : 2
Формат : AC-3
Формат/Информация : Audio Coding 3
Расширение режима : CM (complete main)
Параметр Endianness формата : Big
Идентификатор кодека : 2000
Продолжительность : 2 ч. 1 м.
Вид битрейта : Постоянный
Битрейт : 192 Кбит/сек
Каналы : 2 канала
Расположение каналов : Front: L R
Частота : 48,0 КГц
Частота кадров : 31,250 кадров/сек (1536 spf)
Метод сжатия : С потерями
Размер потока : 167 Мбайт (7%)
Выравнивание : Разделение по промежуткам
Продолжительность промежутка : 42 мс. (1,00 видеокадр)
Время предзагрузки промежутка : 500 мс.

Аудио #3
Идентификатор : 3
Формат : AC-3
Формат/Информация : Audio Coding 3
Расширение режима : CM (complete main)
Параметр Endianness формата : Big
Идентификатор кодека : 2000
Продолжительность : 2 ч. 1 м.
Вид битрейта : Постоянный
Битрейт : 192 Кбит/сек
Каналы : 2 канала
Расположение каналов : Front: L R
Частота : 48,0 КГц
Частота кадров : 31,250 кадров/сек (1536 spf)
Метод сжатия : С потерями
Размер потока : 167 Мбайт (7%)
Выравнивание : Разделение по промежуткам
Продолжительность промежутка : 42 мс. (1,00 видеокадр)
Время предзагрузки промежутка : 500 мс.

Дитя Макона скачать торрент

pb.wtf



Скачать Дитя Макона через торрент http://pic1.kartinco.top/images/10/bqdqn.jpg Скачать фильм Дитя Макона через торрент бесплантно в хорошем качестве Описание: 17-й век. Театр. Перед публикой разыгрывается драма. Суть в том, что во времена смуты и голода пожилая женщина рожает чудесное ... 10 10 3
Info! Золотая раздача, скачанное не засчитывается.
Торрент: Зарегистрирован [2016-09-01 15:02] · скачан: 40 раз
Статус: √ проверено
Размер: 2.18 GB
Как cкачать? Как скачать Дитя Макона через торрент | qTorrent


>> Регистрируемся здесь <<






Отзывы и комментарии о схеме читаем и пишем здесь: ---> Отзывы и комментарии о схеме

Новые благодарочки в телеграм довольных пользователей:
скриншот   скриншот   скриншот   скриншот   скриншот

01-05-2018 06:46 Дитя Макона Скачать торрент  

Великолепный фильм, впечатление от него описать невозможно, да и не нужно. Всем, кто любит кино надо попытаться его посмотреть. Это дистиллят европейского авторского кино, если не понравится -не беда. Первая роль в кино Джулии Ормонд. Качество рипа и перевод очень хорошие. РЕКЛАМЫ НЕТ. Спасибо за раздачу.pb.wtf



    Дорогой пользователь! Огромная просьба, поблагодарите релизера, оцените раздачу и оставьте свои комментарий, если Вы скачали Дитя Макона через торрент бесплатно! Внесите свою лепту в развитие PiratBit!
    Комментировать посты могут только пользователи прошедшие не сложную регистрацию
    Показать сообщения:    

    Дитя Макона через торрент
    Скачать бесплатно Дитя Макона
    Дитя Макона скачать торрент
    Дитя Макона смотреть онлайн
    Cкачать фильм Дитя Макона бесплатно
    Дитя Макона скачать торрент в хорошем качестве
    Дитя Макона смотреть онлайн бесплатно в хорошем качестве


    Вы не можете начинать темы
    Вы не можете отвечать на сообщения
    Вы не можете редактировать свои сообщения
    Вы не можете удалять свои сообщения
    Вы не можете голосовать в опросах
    Вы не можете прикреплять файлы к сообщениям
    Вы можете скачивать файлы