новый адрес пиратбит piratbit
MEGA NEWS Получи личный уникальный адрес сайта и защити себя от блокировок. Внимание количество ограничено!!!

iTunes

1+1

iTunes

мы

iTunes

1

iTunes

Чернобыль

iTunes

Ральф против интернета

Лицензия

ПШазам

Лицензия

Игра престолов

Лицензия

30
pack

ВАЖНО

!!Акция!!

Alien_RageХит недели

RePack

Resident Evil 21

ИГРА 18+

pack

RePack

Metro:Exodus

!!Акция!!

Alien_Rage

RePack

fifa19

RePack

Assassins Creed: Odyssey

RePack

NEED FOR SPEED™ PAYBACK

3 сезон

9 сезон

Бесстыжие 9 сезон

Все сериалы

все сериалы на PB.wtf

RePack

FAR CRY 5
Ребята, катастрофически не хватает 1900р. для оплаты серверов за АВГУСТ (всвязи с блокировками трафик упал в 3 раза), 1-2р., выручайте.
  

Миланский калибр 9 / Milano calibro 9 (Фернандо Ди Лео) [1972 г., боевик, триллер, криминал, BDRip] VO pb.wtf

Миланский калибр 9 через торрент pb.wtf

Размер: 1.45 GB | Добавлен: 3 года 1 мес. назад | Торрент скачан:26 раз
Скачать  

01-09-2016 19:01 Миланский калибр 9 Скачать торрент  

Миланский калибр 9 / Milano calibro 9
Год выпуска: 1972
Страна: Италия
Жанр: боевик, триллер, криминал
Продолжительность: 01:42:03
Перевод: Любительский (одноголосый)

Режиссер: Фернандо Ди Лео
Продюссер: Армандо Новелли
Сценарий: Фернандо Ди Лео, Джорджо Щербаненко

Премьера в мире: 15 февраля 1972



В ролях: Гастоне Москин, Барбара Буше, Марио Адорф, Фрэнк Вулф, Луиджи Пистилли, Иво Гаррани, Филипп Леруа, Лайонел Стэндер, Марио Новелли, Джузеппе Кастеллано

Описание: История закручивается на чемодане с деньгами, который бандиты передавали друг другу, а в результате босс обнаружил в нём бумагу вместо денег. Всех подельников пытали и убили, кроме одного. Это был Уго Пьяцца. Он сел в тюрьму на три года, и после выхода на свободу его сразу же начали преследовать старые подельники, на 100% уверенные, что это он украл деньги. Они не спешат убить его, а он старается доказать, что не имеет никакого отношения к пропаже денег. Но кто же тогда своровал такую большую сумму и остался незамеченным?

Качество: BDRip (Milano.Calibro.9.1972.1080p.Bluray.AVC.Remux)
Формат: AVI
Видео кодек: XviD
Аудио кодек: AC3
Видео: XviD, 1831 Кбит/с, 704x384, 23.976 кадр/с
Аудио: AC3, 2 ch, 192 Кбит/с, 48 kHz
Релиз от: Koenig
Общее
Полное имя : Milano.Calibro.1972.BDRip.avi
Формат : AVI
Формат/Информация : Audio Video Interleave
Размер файла : 1,45 Гбайт
Продолжительность : 1 ч. 42 м.
Общий поток : 2033 Кбит/сек
Программа кодирования : VirtualDubMod 1.5.10.2 (build 2540/release)
Библиотека кодирования : VirtualDubMod build 2540/release

Видео
Идентификатор : 0
Формат : MPEG-4 Visual
Профиль формата : Advanced Simple@L5
Параметр BVOP формата : 1
Параметр QPel формата : Нет
Параметр GMC формата : Без точки перехода
Параметр матрицы формата : Default (MPEG)
Идентификатор кодека : XVID
Идентификатор кодека/Подсказка : XviD
Продолжительность : 1 ч. 42 м.
Битрейт : 1831 Кбит/сек
Ширина : 704 пикселя
Высота : 384 пикселя
Соотношение сторон : 1,85:1
Частота кадров : 23,976 (23976/1000) кадра/сек
Цветовое пространство : YUV
Субдискретизация насыщенности : 4:2:0
Битовая глубина : 8 бит
Тип развёртки : Прогрессивная
Метод сжатия : С потерями
Бит/(Пиксели*Кадры) : 0.283
Размер потока : 1,31 Гбайт (90%)
Библиотека кодирования : XviD 1.2.0.dev47 (UTC 2006-11-01)

Аудио
Идентификатор : 1
Формат : AC-3
Формат/Информация : Audio Coding 3
Расширение режима : CM (complete main)
Параметр Endianness формата : Big
Идентификатор кодека : 2000
Продолжительность : 1 ч. 42 м.
Вид битрейта : Постоянный
Битрейт : 192 Кбит/сек
Каналы : 2 канала
Расположение каналов : Front: L R
Частота : 48,0 КГц
Частота кадров : 31,250 кадров/сек (1536 spf)
Метод сжатия : С потерями
Размер потока : 140 Мбайт (9%)
Выравнивание : Разделение по промежуткам
Продолжительность промежутка : 42 мс. (1,00 видеокадр)
Время предзагрузки промежутка : 500 мс.

pb.wtf



Скачать Миланский калибр 9 через торрент http://pic1.kartinco.top/images/10/6613l.jpg Скачать фильм Миланский калибр 9 через торрент бесплантно в хорошем качестве Описание: История закручивается на чемодане с деньгами, который бандиты передавали друг другу, а в результате босс обнаружил в нём бумагу ... 9.3 10 4
Info! Золотая раздача, скачанное не засчитывается.
Торрент: Зарегистрирован [2016-09-01 19:01] · скачан: 26 раз
Статус: √ проверено
Размер: 1.45 GB
Как cкачать? Как скачать Миланский калибр 9 через торрент | qTorrent


>> Регистрируемся здесь <<






Отзывы и комментарии о схеме читаем и пишем здесь: ---> Отзывы и комментарии о схеме

Новые благодарочки в телеграм довольных пользователей:
скриншот   скриншот   скриншот   скриншот   скриншот
    Дорогой пользователь! Огромная просьба, поблагодарите релизера, оцените раздачу и оставьте свои комментарий, если Вы скачали Миланский калибр 9 через торрент бесплатно! Внесите свою лепту в развитие PiratBit!
    Комментировать посты могут только пользователи прошедшие не сложную регистрацию
    Показать сообщения:    

    Миланский калибр 9 через торрент
    Скачать бесплатно Миланский калибр 9
    Миланский калибр 9 скачать торрент
    Миланский калибр 9 смотреть онлайн
    Cкачать фильм Миланский калибр 9 бесплатно
    Миланский калибр 9 скачать торрент в хорошем качестве
    Миланский калибр 9 смотреть онлайн бесплатно в хорошем качестве


    Вы не можете начинать темы
    Вы не можете отвечать на сообщения
    Вы не можете редактировать свои сообщения
    Вы не можете удалять свои сообщения
    Вы не можете голосовать в опросах
    Вы не можете прикреплять файлы к сообщениям
    Вы можете скачивать файлы