1 сезон

1 сезон

iTunes

1

КиноПоиск HD

Кинопоиск HD

iTunes

13

1 сезон

RePack

30

Ultimate

ВАЖНО

ИГРА 18+

pack

RePack

MK11
pack

Легкие деньги

RePack

jed

RePack

fifa19

RePack

RDR2

RePack

NEED FOR SPEED™ PAYBACK

4 сезон

9 сезон

Бесстыжие 9 сезон

Все сериалы

все сериалы на PB.wtf

RePack

FAR CRY 5
  
Magnet ссылка

Пир / Feast (Джон Гулагер ) [2005, ужасы, боевик, триллер, HDRip, Профессиональный (многоголосый) pb.wtf

Пир через торрент pb.wtf

Размер: 1.46 GB | Добавлен: 4 года 7 мес. назад | Торрент скачан:65 раз
Скачать  

01-09-2016 19:22 Пир Скачать торрент  

Пир / Feast

Год выпуска: 2005
Страна: США
Жанр: ужасы, боевик, триллер, комедия

Продолжительность: 01:26:49
Перевод: Профессиональный (многоголосый)
Режиссер: Джон Гулагер
В ролях: Бальтазар Гетти (Bozo), Генри Роллинз (Coach), Нави Рават (Heroine), Джуда Фридландер (Beer Guy), Джош Цуккерман (Hot Wheels), Джейсон Мьюз (Edgy Cat), Дженни Уэйд (Honey Pie), Криста Аллен (Tuffy), Клу Гулагер (Bartender), Энтони ’Трич’ Крисс (Vet), Эрик Дэйн (Hero), Чойней Дейвис (Drunk Girl)
Описание:
Захудалый бар в пустыне, в котором в этот момент оказались: актер, модель, тренер, официантка и несколько странных личностей подвергается нападению кровожадных существ! Веская причина, чтобы покинуть это место. Но сначала нужно остаться в живых!..
Рейтинг:

MPAA: R - Лицам до 17 лет обязательно присутствие взрослого
Качество: HDRip
Формат: AVI
Видео: 720x304 (2.37:1), 23.976 fps, XviD MPEG-4 ~2007 kbps avg, 0.38 bit/pixel
Аудио: 48 kHz, AC3 Dolby Digital, 3/2 (L,C,R,l,r) + LFE ch, ~384 kbps
General
Complete name : E:\Пир.Расширенная версия_от Klayd X\1.Пир_2005.avi
Format : AVI
Format/Info : Audio Video Interleave
File size : 1.46 GiB
Duration : 1 h 26 min
Overall bit rate : 2 401 kb/s
Movie name : Пир [Пиршество] / Feast [UNRATED] (2005)
Writing application : VirtualDubModRus 1.5.10.2 (build 2542/release)
Copyright : HQ-ViDEO (www.hq-video.ru)
Comment : 08.04.2009

Video
ID : 0
Format : MPEG-4 Visual
Format profile : Advanced Simple@L5
Format settings, BVOP : 2
Format settings, QPel : No
Format settings, GMC : No warppoints
Format settings, Matrix : Default (MPEG)
Muxing mode : Packed bitstream
Codec ID : XVID
Codec ID/Hint : XviD
Duration : 1 h 26 min
Bit rate : 2 007 kb/s
Width : 720 pixels
Height : 304 pixels
Display aspect ratio : 2.35:1
Original display aspect ratio : 2.35:1
Frame rate : 23.976 (23976/1000) FPS
Color space : YUV
Chroma subsampling : 4:2:0
Bit depth : 8 bits
Scan type : Progressive
Compression mode : Lossy
Bits/(Pixel*Frame) : 0.382
Stream size : 1.22 GiB (84%)
Writing library : XviD 1.2.1 (UTC 2008-12-04)

Audio
ID : 1
Format : AC-3
Format/Info : Audio Coding 3
Mode extension : CM (complete main)
Format settings, Endianness : Big
Codec ID : 2000
Duration : 1 h 26 min
Bit rate mode : Constant
Bit rate : 384 kb/s
Channel(s) : 6 channels
Channel positions : Front: L C R, Side: L R, LFE
Sampling rate : 48.0 kHz
Frame rate : 31.250 FPS (1536 spf)
Compression mode : Lossy
Stream size : 238 MiB (16%)
Alignment : Split accross interleaves
Interleave, duration : 42 ms (1.00 video frame)
Interleave, preload duration : 500 ms


pb.wtf



Скачать Пир через торрент http://i83.fastpic.ru/big/2016/0901/c6/64cddfca8cef23282ba1f3ae4fa535c6.jpg Скачать фильм Пир через торрент бесплантно в хорошем качестве Описание: Захудалый бар в пустыне, в котором в этот момент оказались: актер, модель, тренер, официантка и несколько странных личностей ... 10 10 3
Торрент: Зарегистрирован [2016-09-01 19:22] · скачан: 65 раз
Статус: √ проверено
Размер: 1.46 GB
Как cкачать? Как скачать Пир через торрент | UTorrent

% Раздел Тема Автор DL S | L
National Geographic [ 2.27 GB ] Nat Geo Wild: Пир гризли / Feast of the Grizzly [2018 документальный HDTV 1080i] Armstrong Скачать
1 | 0
National Geographic [ 597 MB ] Nat Geo Wild: Пир гризли / Feast of the Grizzly [2016 документальный HDTVRip] Armstrong Скачать
1 | 0
T Релизы по Парсеру [Игры, Сериалы и Фильмы и другое...] [ 1.45 GB ] Пир / Feast [2005 BDRip MVO ] UNRATED shuller Скачать
1 | 0
BBC [ 500 MB ] Джереми Кларксон: Крест Виктории: За доблесть / Jeremy Clarkson: The Victoria Cross: For Valour [2003 Документальный военный DVDRip] VO Один 777 Скачать
1 | 0
Сборники на DVD и Сиквелы [DVDrip, WEB-DLRip, HDrip, BDRip] [ 2.18 GB ] Пир Пир 2: Объедки сладки / Кровавые секунды Пир 3: Счастливая кончина / Обожратушки / Feast Feast 2: Sloppy seconds Feast 3: The Happy Finish [2005 2008 2009 HDRipDVDRip] AVO -=Cherry=- Скачать
1 | 0
Приключения, Квесты, Логические [ 866 MB ] Crazy Machines 5in1 [ПираткаRUFAKT Software] J_o_n_n_ Скачать
1 | 0
Фильмы 2012 [ 700 MB ] Крошка из Беверли-Хиллз 3 / Beverly Hills Chihuahua 3: Viva La Fiesta! [2012 DVDRip] DUB лицензия Oдин 777 Скачать
2 | 0

28-11-2019 20:33  

Отключить всю рекламу на сайте

01-09-2016 20:35 Пир Скачать торрент  

безумие какое-то,а не фильм. обычно такой трэш хихидок любитpb.wtf



    Дорогой пользователь! Огромная просьба, поблагодарите релизера, оцените раздачу и оставьте свои комментарий, если Вы скачали Пир через торрент бесплатно! Внесите свою лепту в развитие PiratBit!
    Комментировать посты могут только пользователи прошедшие не сложную регистрацию
    Показать сообщения:    

    Пир через торрент
    Скачать бесплатно Пир
    Пир скачать торрент
    Пир смотреть онлайн
    Cкачать фильм Пир бесплатно
    Пир скачать торрент в хорошем качестве
    Пир смотреть онлайн бесплатно в хорошем качестве


    Вы не можете начинать темы
    Вы не можете отвечать на сообщения
    Вы не можете редактировать свои сообщения
    Вы не можете удалять свои сообщения
    Вы не можете голосовать в опросах
    Вы не можете прикреплять файлы к сообщениям
    Вы можете скачивать файлы