Death Stranding+DLC+АВТОАКТИВАЦИЯ

iTunes

iTunes

iTunes

1

iTunes

iTunes

iTunes

iTunes

iTunes

30
pack

$ от Little Big

ВАЖНО

!!Акция!!

Alien_RageХит недели

RePack

Resident Evil 21

ИГРА 18+

pack

RePack

jed

!!Акция!!

Alien_Rage

RePack

fifa19

RePack

Assassins Creed: Odyssey

RePack

NEED FOR SPEED™ PAYBACK

4 сезон

9 сезон

Бесстыжие 9 сезон

Все сериалы

все сериалы на PB.wtf

RePack

FAR CRY 5
  

Капитан Фантастик / Captain Fantastic (Мэтт Росс ) [2016, драма, мелодрама, комедия, WEB-DL 720p] MVO [iTunes] pb.wtf

Капитан Фантастик через торрент pb.wtf

Размер: 3.67 GB | Добавлен: 3 года 10 мес. назад | Торрент скачан:310 раз
Скачать  

02-09-2016 06:06 Капитан Фантастик Скачать торрент  

Капитан Фантастик / Captain Fantastic

Год выпуска: 2016
Страна: США
Жанр: драма, мелодрама, комедия

Продолжительность: 01:58:54
Перевод: Профессиональный (многоголосый, закадровый) [iTunes]
Режиссер: Мэтт Росс
В ролях: Вигго Мортенсен (Ben), Джордж МакКэй (Bo), Саманта Ислер (Kielyr), Анналиса Бассо (Vespyr), Николас Хэмилтон (Rellian), Шри Крукс (Zaja), Чарли Шотуэлл (Nai), Трин Миллер (Leslie), Кэтрин Хан (Harper), Стив Зан (Dave), Элайджа Стивенсон (Justin), Тедди Ван Ии (Jackson)
Описание:
Они говорят на нескольких языках, знают квантовую физику и разбираются в философии. Они умеют охотиться и обращаться с оружием. Они живут в лесу в полной гармонии с природой. Лишь стечение обстоятельств заставляет их покинуть родной дом и отправиться в большой город. Что будет, когда они столкнутся с цивилизацией, когда на них обрушится первая любовь и мир гаджетов и социальных сетей?
Рейтинг:

MPAA: R - Лицам до 17 лет обязательно присутствие взрослого
Качество: WEB-DL 720p
Формат: MKV
Видео: AVC, 1280x536 (2.40:1), 4035 kbps, 24 fps, 0,245 bpp
Аудио: русский / AC3 / 5.1 / 48 kHz / 384 kbps /
Навигация по главам: есть

General
Unique ID Kap1taH.FaHtast1k.2016.P.WEB-DL.720p.mkv
Format : Matroska
Format version : Version 4 / Version 2
File size : 3.67 GiB
Duration : 1 h 58 min
Overall bit rate : 4 422 kb/s
Encoded date : UTC 2016-08-23 11:38:27
Writing application : mkvmerge v8.3.0 ('Over the Horizon') 64bit
Writing library : libebml v1.3.1 + libmatroska v1.4.2

Video
ID : 1
Format : AVC
Format/Info : Advanced Video Codec
Format profile : Main@L3.1
Format settings, CABAC : No
Format settings, ReFrames : 2 frames
Codec ID : V_MPEG4/ISO/AVC
Duration : 1 h 58 min
Bit rate : 4 036 kb/s
Width : 1 280 pixels
Height : 536 pixels
Display aspect ratio : 2.40:1
Frame rate mode : Constant
Frame rate : 24.000 FPS
Color space : YUV
Chroma subsampling : 4:2:0
Bit depth : 8 bits
Scan type : Progressive
Bits/(Pixel*Frame) : 0.245
Stream size : 3.35 GiB (91%)
Language : English
Default : Yes
Forced : No
Color range : Limited
Color primaries : BT.709
Transfer characteristics : BT.709
Matrix coefficients : BT.709

Audio
ID : 2
Format : AC-3
Format/Info : Audio Coding 3
Mode extension : CM (complete main)
Format settings, Endianness : Big
Codec ID : A_AC3
Duration : 1 h 58 min
Bit rate mode : Constant
Bit rate : 384 kb/s
Channel(s) : 6 channels
Channel positions : Front: L C R, Side: L R, LFE
Sampling rate : 48.0 kHz
Frame rate : 31.250 FPS (1536 spf)
Compression mode : Lossy
Stream size : 327 MiB (9%)
Language : Russian
Default : Yes
Forced : No

Menu
00:00:00.000 : en:Глава 1
00:06:49.416 : en:Глава 2
00:12:48.082 : en:Глава 3
00:19:37.748 : en:Глава 4
00:24:51.998 : en:Глава 5
00:30:18.748 : en:Глава 6
00:35:25.164 : en:Глава 7
00:42:09.747 : en:Глава 8
00:47:54.330 : en:Глава 9
00:53:32.913 : en:Глава 10
00:59:03.829 : en:Глава 11
01:05:33.329 : en:Глава 12
01:11:37.537 : en:Глава 13
01:17:08.620 : en:Глава 14
01:23:58.245 : en:Глава 15
01:29:59.536 : en:Глава 16
01:36:19.494 : en:Глава 17
01:42:24.494 : en:Глава 18
01:49:32.785 : en:Глава 19
Скриншоты:
pb.wtf



Скачать Капитан Фантастик через торрент http://i3.imageban.ru/out/2016/09/02/f52e5bf2db04912e7bbaf14c7dacaf77.jpg Скачать фильм Капитан Фантастик через торрент бесплантно в хорошем качестве Описание: Они говорят на нескольких языках, знают квантовую физику и разбираются в философии. Они умеют охотиться и обращаться с оружием. ... 10 10 10
Info! Золотая раздача, скачанное не засчитывается.
Торрент: Зарегистрирован [2016-09-02 06:06] · скачан: 310 раз
Статус: √ проверено
Размер: 3.67 GB
Как cкачать? Как скачать Капитан Фантастик через торрент | qTorrent

% Раздел Тема Автор DL S | L
Фильмы 2016 [DVDrip, WEB-DLRip, HDrip] (DUB, MVO) [ 1.46 GB ] Капитан Фантастик / Captain Fantastic [2016 BDRip-AVC] MVO potroks Скачать
1 | 0
Фильмы 2016 [DVDrip, WEB-DLRip, HDrip] (DUB, MVO) [ 1.41 GB ] Капитан Фантастик / Captain Fantastic [2016 BDRip] MVO Twi7ter Скачать
1 | 0
Фильмы (Blu-ray, BD-Remux, HDDVD) [ 25.24 GB ] Капитан Фантастик / Captain Fantastic [2016 BD Remux] многоголосый -Lexx- Скачать
1 | 0
R.G. Resident & PiratVoice - Фильмы, Видео [ 3.06 GB ] Капитан Фантастик / Captain Fantastic [2016 BDRip-AVC] MVO R.G.Resident schultz Скачать
1 | 0
Фильмы 2016 [DVDrip, WEB-DLRip, HDrip] (DUB, MVO) [ 1.45 GB ] Капитан Фантастик / Captain Fantastic [2016 HDRip] MVO bober100 Скачать
1 | 0
Фильмы 2016 [DVDrip, WEB-DLRip, HDrip] (DUB, MVO) [ 2.05 GB ] Капитан Фантастик / Captain Fantastic [2016 WEB-DLRip] MVO smaster Скачать
1 | 0
Фильмы (WEB-DL 720p, 1080p) [ 4.09 GB ] Капитан Фантастик / Captain Fantastic [2016 WEB-DL 1080p] MVO smaster Скачать
1 | 0

28-11-2019 20:33  

Отключить всю рекламу на сайте

    Дорогой пользователь! Огромная просьба, поблагодарите релизера, оцените раздачу и оставьте свои комментарий, если Вы скачали Капитан Фантастик через торрент бесплатно! Внесите свою лепту в развитие PiratBit!
    Комментировать посты могут только пользователи прошедшие не сложную регистрацию
    Показать сообщения:    

    Капитан Фантастик через торрент
    Скачать бесплатно Капитан Фантастик
    Капитан Фантастик скачать торрент
    Капитан Фантастик смотреть онлайн
    Cкачать фильм Капитан Фантастик бесплатно
    Капитан Фантастик скачать торрент в хорошем качестве
    Капитан Фантастик смотреть онлайн бесплатно в хорошем качестве


    Вы не можете начинать темы
    Вы не можете отвечать на сообщения
    Вы не можете редактировать свои сообщения
    Вы не можете удалять свои сообщения
    Вы не можете голосовать в опросах
    Вы не можете прикреплять файлы к сообщениям
    Вы можете скачивать файлы