Ссылка на приватное зеркало всего за 1$. Внимание количество ограничено!!!

iTunes

iTunes

iTunes

1

iTunes

iTunes

iTunes

iTunes

iTunes

30
pack

Новость дня

ВАЖНО

!!Акция!!

Alien_RageХит недели

RePack

Resident Evil 21

ИГРА 18+

pack

RePack

jed

!!Акция!!

Alien_Rage

RePack

fifa19

RePack

Assassins Creed: Odyssey

RePack

NEED FOR SPEED™ PAYBACK

4 сезон

9 сезон

Бесстыжие 9 сезон

Все сериалы

все сериалы на PB.wtf

RePack

FAR CRY 5
  

Судья (Ийли Нэйа) [2015 г., Короткометражка, драма, HDRip by _Один_777] pb.wtf

Судья через торрент pb.wtf

Размер: 370 MB | Добавлен: 3 года 8 мес. назад | Торрент скачан:149 раз
Скачать  

03-09-2016 06:36 Судья Скачать торрент  

Судья
«Общество, у которого нет шансов.»

Год выпуска: 2015
Страна: Россия
Жанр: Короткометражка, драма
Продолжительность: 00:22:27
Cубтитры: английские (неотключаемые)

Режиссер: Ийли Нэйа

В ролях: Пётр Пасин, Ийли Нэйа, Дмитрий Андросов, Евгений Дементьев, Светлана Демьянова, Анна Козина, Андрей Трофимов, Екатерина Уюткина, Роман Энглерт, Анастасия Иоланта, Андрей Шарыгин, Сергей Мотовилов, Андрей Забебенин...

Описание: Крепкая как бетон и устоявшаяся правоохранительная система дала трещину, когда обычный парень взял в руки оружие и отомстил продажной судье за то, что она вынесла несправедливый уголовный приговор его отцу, который позже умер в тюрьме.


Сэмпл: http://sendfile.su/1262201


Качество: HDRip
Формат: AVI
Видео кодек: XviD
Аудио кодек: AC3
Видео: 720x304 (2.37:1), 23.976 fps, XviD build 73 ~2099 kbps avg, 0.40 bit/pixel
Аудио: 48 kHz, AC3 Dolby Digital, 2/0 (L,R) ch, ~192 kbps
Общее
Полное имя : D:\Sud'ja.2015.HDRip.[Один 777].avi
Формат : AVI
Формат/Информация : Audio Video Interleave
Размер файла : 370 Мбайт
Продолжительность : 22 м.
Общий поток : 2301 Кбит/сек
Программа кодирования : VirtualDubMod 1.5.10.3 | www.virtualdub-fr.org || (build 2550/release)
Библиотека кодирования : VirtualDubMod build 2550/release

Видео
Идентификатор : 0
Формат : MPEG-4 Visual
Профиль формата : Advanced Simple@L5
Параметр BVOP формата : 1
Параметр QPel формата : Нет
Параметр GMC формата : Без точки перехода
Параметр матрицы формата : Default (H.263)
Идентификатор кодека : XVID
Идентификатор кодека/Подсказка : XviD
Продолжительность : 22 м.
Битрейт : 2100 Кбит/сек
Ширина : 720 пикселей
Высота : 304 пикселя
Соотношение сторон : 2,35:1
Частота кадров : 23,976 (23976/1000) кадра/сек
Цветовое пространство : YUV
Субдискретизация насыщенности : 4:2:0
Битовая глубина : 8 бит
Тип развёртки : Прогрессивная
Метод сжатия : С потерями
Бит/(Пиксели*Кадры) : 0.400
Размер потока : 337 Мбайт (91%)
Библиотека кодирования : XviD 73

Аудио
Идентификатор : 1
Формат : AC-3
Формат/Информация : Audio Coding 3
Расширение режима : CM (complete main)
Параметр Endianness формата : Big
Идентификатор кодека : 2000
Продолжительность : 22 м.
Вид битрейта : Постоянный
Битрейт : 192 Кбит/сек
Каналы : 2 канала
Расположение каналов : Front: L R
Частота : 48,0 КГц
Частота кадров : 31,250 кадров/сек (1536 spf)
Метод сжатия : С потерями
Размер потока : 30,8 Мбайт (8%)
Выравнивание : Разделение по промежуткам
Продолжительность промежутка : 42 мс. (1,00 видеокадр)
Время предзагрузки промежутка : 500 мс.
pb.wtf



Скачать Судья через торрент http://s019.radikal.ru/i618/1609/de/40ffb71e8c18.jpg Скачать фильм Судья через торрент бесплантно в хорошем качестве Описание: Крепкая как бетон и устоявшаяся правоохранительная система дала трещину, когда обычный парень взял в руки оружие и отомстил ... 8.9 10 8
Info! Золотая раздача, скачанное не засчитывается.
Торрент: Зарегистрирован [2016-09-03 06:36] · скачан: 149 раз
Статус: √ проверено
Размер: 370 MB
Как cкачать? Как скачать Судья через торрент | qTorrent

% Раздел Тема Автор DL S | L
Зарубежные сериалы [ 22.02 GB ] Суд над Кристиной Килер / The Trial of Christine Keeler / Сезон: 1 / Серии: 1-6 из 6 [2019 WEB-DL 1080p] MVO [TVShows] bober100 Скачать
1 | 0
Зарубежные сериалы [ 14.01 GB ] Суд над Кристиной Килер / The Trial of Christine Keeler / Сезон: 1 / Серии: 1-6 из 6 + Спецэпизод [2019 WEBRip 720p] MVO [TVShows] bober100 Скачать
1 | 0
Документальные фильмы и телепередачи [ 123 MB ] Суды над русскими офицерами и амнистии чеченским бандитам [2006 документальный TVRip] metanoia Скачать
1 | 0
Документальные фильмы и телепередачи [ 745 MB ] Суд над победой [2019 Документальный SATRip Оригинальный] Бумер Скачать
1 | 0
Фантастика [ 267 MB ] Алексей Свадковский - Игра Хаоса 4. Судья Богов [Сергей Дидок 2019 80 kbps MP3] bober100 Скачать
2 | 0
Кино СССР [ 372 MB ] Суд идет [1963 СССР короткометражка VHSRip-AVC от AVP Studio] AVP Studio Скачать
2 | 0
Кино СССР [ 373 MB ] Суд идет [1963 СССР короткометражка VHSRip от AVP Studio] AVP Studio Скачать
2 | 0

28-11-2019 20:33  

Отключить всю рекламу на сайте

18-12-2016 17:17 Судья Скачать торрент  

фильм сильный, понравился.
Что-то типа нашего кино: "Майор"
Та же реальность.pb.wtf



    Дорогой пользователь! Огромная просьба, поблагодарите релизера, оцените раздачу и оставьте свои комментарий, если Вы скачали Судья через торрент бесплатно! Внесите свою лепту в развитие PiratBit!
    Комментировать посты могут только пользователи прошедшие не сложную регистрацию
    Показать сообщения:    

    Судья через торрент
    Скачать бесплатно Судья
    Судья скачать торрент
    Судья смотреть онлайн
    Cкачать фильм Судья бесплатно
    Судья скачать торрент в хорошем качестве
    Судья смотреть онлайн бесплатно в хорошем качестве


    Вы не можете начинать темы
    Вы не можете отвечать на сообщения
    Вы не можете редактировать свои сообщения
    Вы не можете удалять свои сообщения
    Вы не можете голосовать в опросах
    Вы не можете прикреплять файлы к сообщениям
    Вы можете скачивать файлы