Ссылка на приватное зеркало нашего сайта всего за 1$. Внимание количество ограничено!!!

2 сезон

iTunes

1 сезон

1

iTunes

iTunes

iTunes

1 сезон

RePack

30

ИГРА 18+

pack

ВАЖНО

!!Акция!!

Alien_RageХит недели

RePack

MK11
pack

Забери бонус

RePack

jed

!!Акция!!

Alien_Rage

RePack

fifa19

RePack

Assassins Creed: Odyssey

RePack

NEED FOR SPEED™ PAYBACK

4 сезон

9 сезон

Бесстыжие 9 сезон

Все сериалы

все сериалы на PB.wtf

RePack

FAR CRY 5
  

Влюблённые женщины / Women in Love (Кен Расселл) [1969, драма, мелодрама, BDRip 720p by msltel] 2 x MVO pb.wtf

Влюблённые женщины через торрент pb.wtf

Размер: 6.37 GB | Добавлен: 4 года 1 мес. назад | Торрент скачан:7 раз
Скачать  

03-09-2016 09:44 Влюблённые женщины Скачать торрент  

Название: Влюблённые женщины
Оригинальное название: Women in Love
Год выпуска: 1969
Страна: Великобритания
Жанр: драма, мелодрама
Продолжительность: 02:10:56
Перевод: профессиональный многоголосый

Режиссёр: Кен Расселл

В ролях: Алан Бэйтс, Оливер Рид, Гленда Джексон, Дженни Линден, Элинор Брон, Алан Уэбб, Владек Шейбал, Кэтрин Уиллмер, Фиби Николлс, Шэрон Герни, Кристофер Гейбл, Майкл Гоф, Норма Шеббир, Нике Арриги, Джеймс Лоренсон, Майкл Грэм Кокс, Ричард Хеффер, Майкл Гаррэтт, Лесли Андерсон, Чарльз Уоркмэн, Барри Флетчер, Брайан Осборн, Кристофер Фергюсон, Ричард Фицджералд

Описание: История двух жаждущих страстей сестёр, Гудрун и Урсулы, и их возлюбленных мужчин, Джеральда и Руперта, разочаровавшихся в жизни и в любви к женщинам... Экранизация романа Дэвида Херберта Лоренса.



Качество: BDRip 720p Сравнение с исходником
Формат: MKV
Видео: MPEG-4 AVC, 6390 Кбит/с, 1260x720, 24 кадр/с
Аудио 1: русский, AC3, 192 kbps, 2 ch, 48 kHz [профессиональный многоголосый, DVD Classic]
Аудио 2: русский, AC3, 192 kbps, 2 ch, 48 kHz [профессиональный многоголосый, DVD Magic]
Аудио 3: английский, AC3, 192 kbps, 1 ch, 48 kHz [оригинал]
Субтитры: английские
Общее
Уникальный идентификатор : 192675422508582674137859849468647361767 (0x90F3EFC36C62D522B35AFA3DD6CCCCE7)
Полное имя : D:\Video\Влюблённые женщины.1969.BDRip.720p.mkv
Формат : Matroska
Версия формата : Version 4 / Version 2
Размер файла : 6,37 Гбайт
Продолжительность : 2 ч. 10 м.
Общий поток : 6961 Кбит/сек
Дата кодирования : UTC 2016-09-03 07:43:34
Программа кодирования : mkvmerge v8.2.0 ('World of Adventure') 64bit
Библиотека кодирования : libebml v1.3.1 + libmatroska v1.4.2

Видео
Идентификатор : 1
Формат : AVC
Формат/Информация : Advanced Video Codec
Профиль формата : High@L4.1
Параметр CABAC формата : Да
Параметр ReFrames формата : 9 кадров
Идентификатор кодека : V_MPEG4/ISO/AVC
Продолжительность : 2 ч. 10 м.
Битрейт : 6390 Кбит/сек
Ширина : 1260 пикселей
Высота : 720 пикселей
Соотношение сторон : 16:9
Режим частоты кадров : Постоянный
Частота кадров : 24,000 кадра/сек
Цветовое пространство : YUV
Субдискретизация насыщенности : 4:2:0
Битовая глубина : 8 бит
Тип развёртки : Прогрессивная
Бит/(Пиксели*Кадры) : 0.293
Размер потока : 5,84 Гбайт (92%)
Библиотека кодирования : x264 core 146 r2538 121396c
Настройки программы : cabac=1 / ref=9 / deblock=1:-3:-3 / analyse=0x3:0x113 / me=umh / subme=10 / psy=1 / psy_rd=1.00:0.15 / mixed_ref=1 / me_range=32 / chroma_me=1 / trellis=2 / 8x8dct=1 / cqm=0 / deadzone=21,11 / fast_pskip=1 / chroma_qp_offset=-3 / threads=6 / lookahead_threads=1 / sliced_threads=0 / nr=0 / decimate=1 / interlaced=0 / bluray_compat=0 / constrained_intra=0 / bframes=12 / b_pyramid=2 / b_adapt=2 / b_bias=0 / direct=1 / weightb=1 / open_gop=0 / weightp=2 / keyint=230 / keyint_min=23 / scenecut=40 / intra_refresh=0 / rc_lookahead=40 / rc=crf / mbtree=0 / crf=20.6 / qcomp=0.60 / qpmin=0 / qpmax=69 / qpstep=4 / vbv_maxrate=40000 / vbv_bufsize=50000 / crf_max=0.0 / nal_hrd=none / filler=0 / ip_ratio=1.40 / pb_ratio=1.30 / aq=1:1.00
Язык : English
Default : Да
Forced : Нет

Аудио #1
Идентификатор : 2
Формат : AC-3
Формат/Информация : Audio Coding 3
Профиль формата : Dolby Digital
Расширение режима : CM (complete main)
Параметр Endianness формата : Big
Идентификатор кодека : A_AC3
Продолжительность : 2 ч. 10 м.
Вид битрейта : Постоянный
Битрейт : 192 Кбит/сек
Каналы : 2 канала
Расположение каналов : Front: L R
Частота : 48,0 КГц
Частота кадров : 31,250 кадров/сек (1536 spf)
Метод сжатия : С потерями
Размер потока : 180 Мбайт (3%)
Заголовок : MVO (DVD Classic)
Язык : Russian
Default : Да
Forced : Нет

Аудио #2
Идентификатор : 3
Формат : AC-3
Формат/Информация : Audio Coding 3
Профиль формата : Dolby Digital
Расширение режима : CM (complete main)
Параметр Endianness формата : Big
Идентификатор кодека : A_AC3
Продолжительность : 2 ч. 10 м.
Вид битрейта : Постоянный
Битрейт : 192 Кбит/сек
Каналы : 2 канала
Расположение каналов : Front: L R
Частота : 48,0 КГц
Частота кадров : 31,250 кадров/сек (1536 spf)
Метод сжатия : С потерями
Размер потока : 180 Мбайт (3%)
Заголовок : MVO (DVD Magic)
Язык : Russian
Default : Нет
Forced : Нет

Аудио #3
Идентификатор : 4
Формат : AC-3
Формат/Информация : Audio Coding 3
Расширение режима : CM (complete main)
Параметр Endianness формата : Big
Идентификатор кодека : A_AC3
Продолжительность : 2 ч. 10 м.
Вид битрейта : Постоянный
Битрейт : 192 Кбит/сек
Каналы : 1 канал
Расположение каналов : Front: C
Частота : 48,0 КГц
Частота кадров : 31,250 кадров/сек (1536 spf)
Метод сжатия : С потерями
Размер потока : 180 Мбайт (3%)
Заголовок : original
Язык : English
Default : Нет
Forced : Нет

Текст
Идентификатор : 5
Формат : UTF-8
Идентификатор кодека : S_TEXT/UTF8
Идентификатор кодека/Информация : UTF-8 Plain Text
Продолжительность : 2 ч. 9 м.
Битрейт : 50 бит/сек
Count of elements : 1581
Размер потока : 48,5 Кбайт (0%)
Заголовок : английские
Язык : English
Default : Нет
Forced : Нет
pb.wtf



Скачать Влюблённые женщины через торрент http://s018.radikal.ru/i528/1609/a2/4f2fbabea34b.jpg Скачать фильм Влюблённые женщины через торрент бесплантно в хорошем качестве Описание: История двух жаждущих страстей сестёр, Гудрун и Урсулы, и их возлюбленных мужчин, Джеральда и Руперта, разочаровавшихся в жизни и ... 10 10 1
Info! Золотая раздача, скачанное не засчитывается.
Торрент: Зарегистрирован [2016-09-03 09:44] · скачан: 7 раз
Статус: √ проверено
Размер: 6.37 GB
Как cкачать? Как скачать Влюблённые женщины через торрент | qTorrent

% Раздел Тема Автор DL S | L
Фильмы [HD 720p, 1080p] (Хороший звук DUB, MVO) [ 19.76 GB ] Влюблённые женщины / Women in Love [1969 BDRip 1080p by msltel] 2 x MVO msltel Скачать
1 | 0
Классика зарубежного кино [ 2.18 GB ] Влюбленные женщины / Women in Love [1969 BDRip] 2 x MVO koenig Скачать
1 | 0

28-11-2019 20:33  

Отключить всю рекламу на сайте

    Дорогой пользователь! Огромная просьба, поблагодарите релизера, оцените раздачу и оставьте свои комментарий, если Вы скачали Влюблённые женщины через торрент бесплатно! Внесите свою лепту в развитие PiratBit!
    Комментировать посты могут только пользователи прошедшие не сложную регистрацию
    Показать сообщения:    

    Влюблённые женщины через торрент
    Скачать бесплатно Влюблённые женщины
    Влюблённые женщины скачать торрент
    Влюблённые женщины смотреть онлайн
    Cкачать фильм Влюблённые женщины бесплатно
    Влюблённые женщины скачать торрент в хорошем качестве
    Влюблённые женщины смотреть онлайн бесплатно в хорошем качестве


    Вы не можете начинать темы
    Вы не можете отвечать на сообщения
    Вы не можете редактировать свои сообщения
    Вы не можете удалять свои сообщения
    Вы не можете голосовать в опросах
    Вы не можете прикреплять файлы к сообщениям
    Вы можете скачивать файлы