Ссылка на приватное зеркало нашего сайта всего за 1$. Внимание количество ограничено!!!

2 сезон

iTunes

1 сезон

1

2 сезон

2 сезон

iTunes

1 сезон

RePack

30

Ultimate

ВАЖНО

ИГРА 18+

pack

RePack

MK11
pack

Забери бонус

RePack

jed

!!Акция!!

Alien_Rage

RePack

fifa19

RePack

Assassins Creed: Odyssey

RePack

NEED FOR SPEED™ PAYBACK

4 сезон

9 сезон

Бесстыжие 9 сезон

Все сериалы

все сериалы на PB.wtf

RePack

FAR CRY 5
  

Фестиваль "Эксоэксо" / XOXO (Кристофер Луи ) [2016, драма, WEB-DL 720p] MVO pb.wtf

Фестиваль "Эксоэксо" через торрент pb.wtf

Размер: 2.93 GB | Добавлен: 4 года 2 мес. назад | Торрент скачан:41 раз
Скачать  

03-09-2016 16:14 Фестиваль "Эксоэксо" Скачать торрент  

Фестиваль "Эксоэксо" / XOXO

Год выпуска: 2016
Страна: США
Жанр: драма
Продолжительность: 01:32:10
Перевод: Любительский (многоголосый закадровый)
Режиссер: Кристофер Луи
В ролях: Сара Хайланд (Krystal), Айони Скай (Susan), Хейли Кийоко (Shannie), Райан Хансен (DJ Avilo), Йен Энтони Дэйл (Anders), Грэм Филлипс (Ethan), Крис Д’Елия (Neil), Брианна Хоуи (Darla), ЛаМоника Гаррет (Chopper), Бретт Дэвис (Vince), Марсия Миллер (Alien Girl), Медальон Рахими (Nikki)
Описание:
Жизни шестерых людей пересекаются одной романтичной и бешеной ночью.
Рейтинг:

Качество: WEB-DL 720p
Формат: MKV
Видео: AVC, 1280x536 (2.40:1), 4161 kbps, 23,976 fps, 0,253 bpp
Аудио: AC3 / 2.0 / 48 kHz / 384 kbps /

General
Unique ID
Complete name XOXO.2016.WEB-DL.72Op.mkv
Format : Matroska
Format version : Version 2
File size : 2.93 GiB
Duration : 1 h 32 min
Overall bit rate mode : Constant
Overall bit rate : 4 547 kb/s
Encoded date : UTC 2016-09-03 01:18:07
Writing application : mkvmerge v8.3.0 ('Over the Horizon') 64bit
Writing library : libebml v1.3.1 + libmatroska v1.4.2

Video
ID : 1
Format : AVC
Format/Info : Advanced Video Codec
Format profile : High@L4.1
Format settings, CABAC : Yes
Format settings, ReFrames : 12 frames
Codec ID : V_MPEG4/ISO/AVC
Duration : 1 h 32 min
Bit rate mode : Constant
Bit rate : 4 161 kb/s
Nominal bit rate : 4 500 kb/s
Width : 1 280 pixels
Height : 536 pixels
Display aspect ratio : 2.40:1
Frame rate mode : Constant
Frame rate : 23.976 (24000/1001) FPS
Standard : Component
Color space : YUV
Chroma subsampling : 4:2:0
Bit depth : 8 bits
Scan type : Progressive
Bits/(Pixel*Frame) : 0.253
Stream size : 2.68 GiB (92%)
Default : Yes
Forced : No
Color range : Limited
Color primaries : BT.709
Transfer characteristics : BT.709
Matrix coefficients : BT.709

Audio
ID : 2
Format : AC-3
Format/Info : Audio Coding 3
Mode extension : CM (complete main)
Format settings, Endianness : Big
Codec ID : A_AC3
Duration : 1 h 32 min
Bit rate mode : Constant
Bit rate : 384 kb/s
Channel(s) : 2 channels
Channel positions : Front: L R
Sampling rate : 48.0 kHz
Frame rate : 31.250 FPS (1536 spf)
Compression mode : Lossy
Stream size : 253 MiB (8%)
Default : Yes
Forced : No
Скриншоты:
pb.wtf



Скачать Фестиваль "Эксоэксо" через торрент http://i3.imageban.ru/out/2016/09/03/b1dafb9c8c0fdc5e7387458ef381def4.jpg Скачать фильм Фестиваль "Эксоэксо" через торрент бесплантно в хорошем качестве Описание: Жизни шестерых людей пересекаются одной романтичной и бешеной ... 10 10 2
Торрент: Зарегистрирован [2016-09-03 16:14] · скачан: 41 раз
Статус: T временная
Размер: 2.93 GB
Как cкачать? Как скачать Фестиваль "Эксоэксо" через торрент | qTorrent

28-11-2019 20:33  

Отключить всю рекламу на сайте

    Дорогой пользователь! Огромная просьба, поблагодарите релизера, оцените раздачу и оставьте свои комментарий, если Вы скачали Фестиваль "Эксоэксо" через торрент бесплатно! Внесите свою лепту в развитие PiratBit!
    Комментировать посты могут только пользователи прошедшие не сложную регистрацию
    Показать сообщения:    

    Фестиваль "Эксоэксо" через торрент
    Скачать бесплатно Фестиваль "Эксоэксо"
    Фестиваль "Эксоэксо" скачать торрент
    Фестиваль "Эксоэксо" смотреть онлайн
    Cкачать фильм Фестиваль "Эксоэксо" бесплатно
    Фестиваль "Эксоэксо" скачать торрент в хорошем качестве
    Фестиваль "Эксоэксо" смотреть онлайн бесплатно в хорошем качестве


    Вы не можете начинать темы
    Вы не можете отвечать на сообщения
    Вы не можете редактировать свои сообщения
    Вы не можете удалять свои сообщения
    Вы не можете голосовать в опросах
    Вы не можете прикреплять файлы к сообщениям
    Вы можете скачивать файлы