Ссылка на приватное зеркало всего за 1$. Внимание количество ограничено!!!


iTunes

1+1

iTunes

мы

WEB-DL

1

iTunes

Чернобыль

iTunes

Ральф против интернета

Лицензия

ПШазам

Лицензия

Оно 2

WEB-DL

30
pack

Вам бонус

ВАЖНО

!!Акция!!

Alien_RageХит недели

RePack

Resident Evil 21

ИГРА 18+

pack

RePack

jed

!!Акция!!

Alien_Rage

RePack

fifa19

RePack

Assassins Creed: Odyssey

RePack

NEED FOR SPEED™ PAYBACK

4 сезон

9 сезон

Бесстыжие 9 сезон

Все сериалы

все сериалы на PB.wtf

RePack

FAR CRY 5
Ребята, катастрофически не хватает 1900р. для оплаты серверов за Октябрь (всвязи с блокировками трафик упал в 3 раза), 1-2р., выручайте.
  

Грек Зорба / Alexis Zorbas (Михалис Какояннис) [1964 г., драма, приключения, BDRip-AVC] DUB, MVO pb.wtf

Грек Зорба через торрент pb.wtf

Размер: 4.37 GB | Добавлен: 3 года 3 мес. назад | Торрент скачан:16 раз
Скачать  

03-09-2016 17:30 Грек Зорба Скачать торрент  

Грек Зорба / Alexis Zorbas
Год выпуска: 1964
Страна: Греция, США
Жанр: драма, приключения
Продолжительность: 02:22:09
Перевод: Дублированный, профессиональный многоголосый
Субтитры: Русские (форсированные + полные), английские (форсированные + полные)

Режиссер: Михалис Какояннис
Продюссер: Михалис Какояннис, Энтони Куинн
Сценарий: Михалис Какояннис, Никос Казандзакис

Бюджет: $783 000
Премьера в мире: 14 декабря 1964



В ролях: Энтони Куинн, Алан Бэйтс, Ирен Папас, Лиля Кедрова, Сотирис Мустакас, Anna Kyriakou, Элени Анусаки, Йорго Воягис, Такис Эммануель, Джордж Фундас

Описание: Молодой англичанин Бэзил получает в наследство участок земли и шахту на острове Крит, где сталкивается с жестокими нравами местных жителей, и только дружба с жизнерадостным и находчивым греком Зорбой позволяет ему преодолеть возникшие проблемы.

Качество: BDRip-AVC (Zorba the Greek 1964 1080p Blu-ray Remux AVC DTS-HD MA 1.0 - KRaLiMaRKo)
Формат: MKV
Видео кодек: H.264
Аудио кодек: AC3
Видео: MPEG-4 AVC, 3563 Кбит/с, 960x576, 23.976 кадр/с
Аудио#1: AC3, 2 ch, 192 Кбит/с, 48 kHz | Дублированный
Аудио#2: AC3, 6 ch, 448 Кбит/с, 48 kHz | Профессиональный многоголосый
Аудио#3: AC3, 1 ch, 192 Кбит/с, 48 kHz | Английский
Релиз от: Koenig
x264 [info]: frame I:1320 Avg QP:16.07 size:113269
x264 [info]: frame P:43245 Avg QP:19.09 size: 41063
x264 [info]: frame B:159938 Avg QP:21.96 size: 11715
x264 [info]: consecutive B-frames: 1.9% 2.4% 6.6% 17.7% 14.3% 48.1% 5.2% 1.3% 1.5% 0.6% 0.4%
_________________________________________________________________________________________________________

Общее
Уникальный идентификатор : 245291037759038315831514556068786631753 (0xB88955E16D5927A780ACAF0CFB887449)
Полное имя : Zorba.The.Greek.1964.BDRip-AVC.mkv
Формат : Matroska
Версия формата : Version 4 / Version 2
Размер файла : 4,37 Гбайт
Продолжительность : 2 ч. 22 м.
Общий поток : 4398 Кбит/сек
Режиссёр : Mihalis Kakogiannis
Дата кодирования : UTC 2016-09-03 15:15:05
Программа кодирования : mkvmerge v9.2.0 ('Photograph') 32bit
Библиотека кодирования : libebml v1.3.3 + libmatroska v1.4.4
Обложка : Yes
Attachments : cover.jpg
Release : Koenig

Видео
Идентификатор : 1
Формат : AVC
Формат/Информация : Advanced Video Codec
Профиль формата : High@L4.1
Параметр CABAC формата : Да
Параметр ReFrames формата : 9 кадров
Идентификатор кодека : V_MPEG4/ISO/AVC
Продолжительность : 2 ч. 22 м.
Битрейт : 3563 Кбит/сек
Ширина : 960 пикселей
Высота : 576 пикселей
Соотношение сторон : 5:3
Режим частоты кадров : Постоянный
Частота кадров : 23,976 (24000/1001) кадра/сек
Цветовое пространство : YUV
Субдискретизация насыщенности : 4:2:0
Битовая глубина : 8 бит
Тип развёртки : Прогрессивная
Бит/(Пиксели*Кадры) : 0.269
Размер потока : 3,54 Гбайт (81%)
Библиотека кодирования : x264 core 148 r2692 64f4e24
Настройки программы : cabac=1 / ref=9 / deblock=1:-3:-3 / analyse=0x3:0x133 / me=umh / subme=10 / psy=1 / psy_rd=1.00:0.10 / mixed_ref=1 / me_range=32 / chroma_me=1 / trellis=2 / 8x8dct=1 / cqm=0 / deadzone=21,11 / fast_pskip=0 / chroma_qp_offset=-3 / threads=3 / lookahead_threads=1 / sliced_threads=0 / nr=0 / decimate=1 / interlaced=0 / bluray_compat=0 / constrained_intra=0 / bframes=10 / b_pyramid=2 / b_adapt=2 / b_bias=0 / direct=3 / weightb=1 / open_gop=0 / weightp=2 / keyint=240 / keyint_min=23 / scenecut=40 / intra_refresh=0 / rc_lookahead=40 / rc=2pass / mbtree=1 / bitrate=3563 / ratetol=1.0 / qcomp=0.60 / qpmin=10 / qpmax=51 / qpstep=4 / cplxblur=20.0 / qblur=0.5 / vbv_maxrate=50000 / vbv_bufsize=62500 / nal_hrd=none / filler=0 / ip_ratio=1.40 / aq=1:1.00
Default : Да
Forced : Нет

Аудио #1
Идентификатор : 2
Формат : AC-3
Формат/Информация : Audio Coding 3
Расширение режима : CM (complete main)
Параметр Endianness формата : Big
Идентификатор кодека : A_AC3
Продолжительность : 2 ч. 22 м.
Вид битрейта : Постоянный
Битрейт : 192 Кбит/сек
Каналы : 2 канала
Расположение каналов : Front: L R
Частота : 48,0 КГц
Частота кадров : 31,250 кадров/сек (1536 spf)
Метод сжатия : С потерями
Размер потока : 195 Мбайт (4%)
Заголовок : DUB
Язык : Russian
Default : Да
Forced : Нет

Аудио #2
Идентификатор : 3
Формат : AC-3
Формат/Информация : Audio Coding 3
Расширение режима : CM (complete main)
Параметр Endianness формата : Big
Идентификатор кодека : A_AC3
Продолжительность : 2 ч. 22 м.
Вид битрейта : Постоянный
Битрейт : 448 Кбит/сек
Каналы : 6 каналов
Расположение каналов : Front: L C R, Side: L R, LFE
Частота : 48,0 КГц
Частота кадров : 31,250 кадров/сек (1536 spf)
Метод сжатия : С потерями
Размер потока : 456 Мбайт (10%)
Заголовок : MVO
Язык : Russian
Default : Нет
Forced : Нет

Аудио #3
Идентификатор : 4
Формат : AC-3
Формат/Информация : Audio Coding 3
Расширение режима : CM (complete main)
Параметр Endianness формата : Big
Идентификатор кодека : A_AC3
Продолжительность : 2 ч. 22 м.
Вид битрейта : Постоянный
Битрейт : 192 Кбит/сек
Каналы : 1 канал
Расположение каналов : Front: C
Частота : 48,0 КГц
Частота кадров : 31,250 кадров/сек (1536 spf)
Метод сжатия : С потерями
Размер потока : 195 Мбайт (4%)
Язык : English
Default : Нет
Forced : Нет

Текст #1
Идентификатор : 5
Формат : UTF-8
Идентификатор кодека : S_TEXT/UTF8
Идентификатор кодека/Информация : UTF-8 Plain Text
Продолжительность : 2 ч. 20 м.
Битрейт : 0 бит/сек
Count of elements : 29
Размер потока : 980 байт (0%)
Заголовок : Forsed
Язык : Russian
Default : Да
Forced : Нет

Текст #2
Идентификатор : 6
Формат : UTF-8
Идентификатор кодека : S_TEXT/UTF8
Идентификатор кодека/Информация : UTF-8 Plain Text
Продолжительность : 2 ч. 21 м.
Битрейт : 38 бит/сек
Count of elements : 937
Размер потока : 39,9 Кбайт (0%)
Заголовок : Full
Язык : Russian
Default : Нет
Forced : Нет

Текст #3
Идентификатор : 7
Формат : UTF-8
Идентификатор кодека : S_TEXT/UTF8
Идентификатор кодека/Информация : UTF-8 Plain Text
Продолжительность : 2 ч. 3 м.
Битрейт : 0 бит/сек
Count of elements : 26
Размер потока : 528 байт (0%)
Заголовок : Forsed
Язык : English
Default : Нет
Forced : Нет

Текст #4
Идентификатор : 8
Формат : UTF-8
Идентификатор кодека : S_TEXT/UTF8
Идентификатор кодека/Информация : UTF-8 Plain Text
Продолжительность : 2 ч. 20 м.
Битрейт : 23 бит/сек
Count of elements : 929
Размер потока : 24,5 Кбайт (0%)
Заголовок : Full
Язык : English
Default : Нет
Forced : Нет

Меню
00:00:00.000 : en:Main Titles
00:00:52.886 : en:Rain Delay
00:03:03.391 : en:Proposition
00:06:12.705 : en:Rum and Tea
00:12:47.516 : en:Rough Crossing
00:16:06.799 : en:Arrival
00:18:56.385 : en:Madame Hortense
00:23:41.545 : en:Faded Glory
00:31:50.283 : en:The Widow's Goat
00:35:54.902 : en:Sexual Tension
00:39:45.549 : en:Opening the Mine
00:45:50.914 : en:Water Into Wine
00:49:50.403 : en:Trust
00:52:06.998 : en:Zorba's Dance
00:58:18.828 : en:Fire in the Belly
01:01:23.387 : en:The Only Sin
01:09:26.286 : en:Twenty Again
01:15:19.347 : en:Restraint
01:20:03.339 : en:Lola
01:25:13.941 : en:Zorba's Letter
01:30:17.286 : en:The Lovers
01:38:44.251 : en:Suicide
01:41:45.307 : en:Revenge
01:53:47.111 : en:Wedding Vows
01:59:43.509 : en:Village Vultures
02:10:13.555 : en:"Timber!"
02:14:48.288 : en:Freedom
02:21:07.625 : en:End Titles
02:22:08.519 : en:Chapter 29

Грек Зорба скачать торрент

pb.wtf



Скачать Грек Зорба через торрент http://i83.fastpic.ru/big/2016/0903/58/9dd61b9aa5370350ab242eaaff09e258.jpg Скачать фильм Грек Зорба через торрент бесплантно в хорошем качестве Описание: Молодой англичанин Бэзил получает в наследство участок земли и шахту на острове Крит, где сталкивается с жестокими нравами ... 10 10 1
Торрент: Зарегистрирован [2016-09-03 17:30] · скачан: 16 раз
Статус: √ проверено
Размер: 4.37 GB
Как cкачать? Как скачать Грек Зорба через торрент | qTorrent

28-11-2019 20:33  

Отключить всю рекламу на сайте

    Дорогой пользователь! Огромная просьба, поблагодарите релизера, оцените раздачу и оставьте свои комментарий, если Вы скачали Грек Зорба через торрент бесплатно! Внесите свою лепту в развитие PiratBit!
    Комментировать посты могут только пользователи прошедшие не сложную регистрацию
    Показать сообщения:    

    Грек Зорба через торрент
    Скачать бесплатно Грек Зорба
    Грек Зорба скачать торрент
    Грек Зорба смотреть онлайн
    Cкачать фильм Грек Зорба бесплатно
    Грек Зорба скачать торрент в хорошем качестве
    Грек Зорба смотреть онлайн бесплатно в хорошем качестве


    Вы не можете начинать темы
    Вы не можете отвечать на сообщения
    Вы не можете редактировать свои сообщения
    Вы не можете удалять свои сообщения
    Вы не можете голосовать в опросах
    Вы не можете прикреплять файлы к сообщениям
    Вы можете скачивать файлы