Ссылка на приватное зеркало всего за 1$. Внимание количество ограничено!!!

iTunes

iTunes

iTunes

1

iTunes

iTunes

iTunes

iTunes

iTunes

30
pack

$ от Little Big

ВАЖНО

!!Акция!!

Alien_RageХит недели

RePack

Resident Evil 21

ИГРА 18+

pack

RePack

jed

!!Акция!!

Alien_Rage

RePack

fifa19

RePack

Assassins Creed: Odyssey

RePack

NEED FOR SPEED™ PAYBACK

4 сезон

9 сезон

Бесстыжие 9 сезон

Все сериалы

все сериалы на PB.wtf

RePack

FAR CRY 5
  

Максимум Райд / Maximum Ride (Джей Мартин) [2016, фантастика, фэнтези, боевик, WEB-DL 1080p] MVO pb.wtf

Максимум Райд через торрент pb.wtf

Размер: 2.78 GB | Добавлен: 3 года 10 мес. назад | Торрент скачан:109 раз
Скачать  

03-09-2016 18:27 Максимум Райд Скачать торрент  

Максимум Райд / Maximum Ride

Год выпуска: 2016
Страна: США
Жанр: фантастика, фэнтези, боевик, триллер, комедия, приключения

Продолжительность: 01:27:40
Перевод: Любительский (многоголосый закадровый)
Режиссер: Джей Мартин
В ролях: Allie Marie Evans (Maximum «Max» Ride), Кэрри Уомплер (Ella Martinez), Патрик Джонсон (Fang), Зэйн Эмори (Iggy), Тина Хуанг (Dr. Rosen), Люк Грегори Кросби (Ari), Gavin Lewis (Gazzy), Карла Самудио (Dr. Martinez), Tetona Jackson (Nudge)
Описание:
В центре сюжета - несколько подростков, над которыми поэкспериментировали генетики, после чего они стали частично птицами, а частично остались людьми. Научившись летать, дети сбегают из лаборатории. За ними вдогонку тут же отправляют другое чудо учёных-генетиков - полулюдей-полуволков.
Рейтинг:

MPAA: PG-13 - Детям до 13 лет просмотр не желателен
Качество: WEB-DL 1080p
Формат: MKV
Видео: AVC, 1916x1076 (16:9), 4160 kbps, 23,976 fps, 0,084 bpp
Аудио: AC3 / 2.0 / 48 kHz / 384 kbps /

General
Unique ID Maximum Ride.2016.WEB-DL.1080p.mkv
Format : Matroska
Format version : Version 2
File size : 2.78 GiB
Duration : 1 h 27 min
Overall bit rate mode : Constant
Overall bit rate : 4 547 kb/s
Encoded date : UTC 2016-09-03 14:35:08
Writing application : mkvmerge v8.3.0 ('Over the Horizon') 64bit
Writing library : libebml v1.3.1 + libmatroska v1.4.2

Video
ID : 1
Format : AVC
Format/Info : Advanced Video Codec
Format profile : High@L4.1
Format settings, CABAC : Yes
Format settings, ReFrames : 4 frames
Codec ID : V_MPEG4/ISO/AVC
Duration : 1 h 27 min
Bit rate mode : Constant
Bit rate : 4 161 kb/s
Nominal bit rate : 4 600 kb/s
Width : 1 916 pixels
Height : 1 076 pixels
Display aspect ratio : 16:9
Frame rate mode : Constant
Frame rate : 23.976 (24000/1001) FPS
Standard : Component
Color space : YUV
Chroma subsampling : 4:2:0
Bit depth : 8 bits
Scan type : Progressive
Bits/(Pixel*Frame) : 0.084
Stream size : 2.55 GiB (92%)
Default : Yes
Forced : No
Color range : Limited
Color primaries : BT.709
Transfer characteristics : BT.709
Matrix coefficients : BT.709

Audio
ID : 2
Format : AC-3
Format/Info : Audio Coding 3
Mode extension : CM (complete main)
Format settings, Endianness : Big
Codec ID : A_AC3
Duration : 1 h 27 min
Bit rate mode : Constant
Bit rate : 384 kb/s
Channel(s) : 2 channels
Channel positions : Front: L R
Sampling rate : 48.0 kHz
Frame rate : 31.250 FPS (1536 spf)
Compression mode : Lossy
Stream size : 241 MiB (8%)
Default : Yes
Forced : No
Скриншоты:
pb.wtf



Скачать Максимум Райд через торрент http://i2.imageban.ru/out/2016/09/03/d39bd7999653980cb5ef2a08bf8036d1.jpg Скачать фильм Максимум Райд через торрент бесплантно в хорошем качестве Описание: В центре сюжета - несколько подростков, над которыми поэкспериментировали генетики, после чего они стали частично птицами, а ... 8.1 10 8
Торрент: Зарегистрирован [2016-09-03 18:27] · скачан: 109 раз
Статус: T временная
Размер: 2.78 GB
Как cкачать? Как скачать Максимум Райд через торрент | qTorrent

% Раздел Тема Автор DL S | L
T Фильмы (WEB-DL 720p, 1080p) [ 2.53 GB ] Максимум Райд / Maximum Ride [2016 WEB-DL 720p] MVO smaster Скачать
1 | 0

28-11-2019 20:33  

Отключить всю рекламу на сайте

03-09-2016 18:38 Максимум Райд Скачать торрент  

Прочитал описание, хотел закурить, потом вспомнил что не курю... Достойный ответ "азулуму" pb.wtf



03-09-2016 18:59 Максимум Райд Скачать торрент  

Вообщем фильм про малолетних куриц и позорных волков pb.wtf



05-09-2016 12:50 Максимум Райд Скачать торрент  

И смотреть не надо даже. И так все понятно)))pb.wtf



    Дорогой пользователь! Огромная просьба, поблагодарите релизера, оцените раздачу и оставьте свои комментарий, если Вы скачали Максимум Райд через торрент бесплатно! Внесите свою лепту в развитие PiratBit!
    Комментировать посты могут только пользователи прошедшие не сложную регистрацию
    Показать сообщения:    

    Максимум Райд через торрент
    Скачать бесплатно Максимум Райд
    Максимум Райд скачать торрент
    Максимум Райд смотреть онлайн
    Cкачать фильм Максимум Райд бесплатно
    Максимум Райд скачать торрент в хорошем качестве
    Максимум Райд смотреть онлайн бесплатно в хорошем качестве


    Вы не можете начинать темы
    Вы не можете отвечать на сообщения
    Вы не можете редактировать свои сообщения
    Вы не можете удалять свои сообщения
    Вы не можете голосовать в опросах
    Вы не можете прикреплять файлы к сообщениям
    Вы можете скачивать файлы