Death Stranding+DLC+АВТОАКТИВАЦИЯ

iTunes

iTunes

iTunes

1

iTunes

iTunes

iTunes

iTunes

iTunes

30
pack

$ от Little Big

ВАЖНО

!!Акция!!

Alien_RageХит недели

RePack

Resident Evil 21

ИГРА 18+

pack

RePack

jed

!!Акция!!

Alien_Rage

RePack

fifa19

RePack

Assassins Creed: Odyssey

RePack

NEED FOR SPEED™ PAYBACK

4 сезон

9 сезон

Бесстыжие 9 сезон

Все сериалы

все сериалы на PB.wtf

RePack

FAR CRY 5
  

Максимум Райд / Maximum Ride (Джей Мартин) [2016, фантастика, фэнтези, боевик, WEB-DL 720p] MVO pb.wtf

Максимум Райд через торрент pb.wtf

Размер: 2.53 GB | Добавлен: 3 года 10 мес. назад | Торрент скачан:198 раз
Скачать  

03-09-2016 18:35 Максимум Райд Скачать торрент  

Максимум Райд / Maximum Ride

Год выпуска: 2016
Страна: США
Жанр: фантастика, фэнтези, боевик, триллер, комедия, приключения

Продолжительность: 01:27:40
Перевод: Любительский (многоголосый закадровый)
Режиссер: Джей Мартин
В ролях: Allie Marie Evans (Maximum «Max» Ride), Кэрри Уомплер (Ella Martinez), Патрик Джонсон (Fang), Зэйн Эмори (Iggy), Тина Хуанг (Dr. Rosen), Люк Грегори Кросби (Ari), Gavin Lewis (Gazzy), Карла Самудио (Dr. Martinez), Tetona Jackson (Nudge)
Описание:
В центре сюжета - несколько подростков, над которыми поэкспериментировали генетики, после чего они стали частично птицами, а частично остались людьми. Научившись летать, дети сбегают из лаборатории. За ними вдогонку тут же отправляют другое чудо учёных-генетиков - полулюдей-полуволков.
Рейтинг:

MPAA: PG-13 - Детям до 13 лет просмотр не желателен
Качество: WEB-DL 720p
Формат: MKV
Видео: AVC, 1280x720 (16:9), 3738 kbps, 23,976 fps, 0,169 bpp
Аудио: AC3 / 2.0 / 48 kHz / 384 kbps /

General
Unique ID Maximum Ride.2016.WEB-DL.720p.mkv
Format : Matroska
Format version : Version 2
File size : 2.53 GiB
Duration : 1 h 27 min
Overall bit rate mode : Constant
Overall bit rate : 4 124 kb/s
Encoded date : UTC 2016-09-03 14:34:38
Writing application : mkvmerge v8.3.0 ('Over the Horizon') 64bit
Writing library : libebml v1.3.1 + libmatroska v1.4.2

Video
ID : 1
Format : AVC
Format/Info : Advanced Video Codec
Format profile : High@L4.1
Format settings, CABAC : Yes
Format settings, ReFrames : 9 frames
Codec ID : V_MPEG4/ISO/AVC
Duration : 1 h 27 min
Bit rate mode : Constant
Bit rate : 3 738 kb/s
Nominal bit rate : 4 100 kb/s
Width : 1 280 pixels
Height : 720 pixels
Display aspect ratio : 16:9
Frame rate mode : Constant
Frame rate : 23.976 (24000/1001) FPS
Standard : Component
Color space : YUV
Chroma subsampling : 4:2:0
Bit depth : 8 bits
Scan type : Progressive
Bits/(Pixel*Frame) : 0.169
Stream size : 2.29 GiB (91%)
Default : Yes
Forced : No
Color range : Limited
Color primaries : BT.709
Transfer characteristics : BT.709
Matrix coefficients : BT.709

Audio
ID : 2
Format : AC-3
Format/Info : Audio Coding 3
Mode extension : CM (complete main)
Format settings, Endianness : Big
Codec ID : A_AC3
Duration : 1 h 27 min
Bit rate mode : Constant
Bit rate : 384 kb/s
Channel(s) : 2 channels
Channel positions : Front: L R
Sampling rate : 48.0 kHz
Frame rate : 31.250 FPS (1536 spf)
Compression mode : Lossy
Stream size : 241 MiB (9%)
Default : Yes
Forced : No
Скриншоты:
pb.wtf



Скачать Максимум Райд через торрент http://i6.imageban.ru/out/2016/09/03/464d875a21f0b28e7b91eda628844ae5.jpg Скачать фильм Максимум Райд через торрент бесплантно в хорошем качестве Описание: В центре сюжета - несколько подростков, над которыми поэкспериментировали генетики, после чего они стали частично птицами, а ... 6.3 10 3
Торрент: Зарегистрирован [2016-09-03 18:35] · скачан: 198 раз
Статус: T временная
Размер: 2.53 GB
Как cкачать? Как скачать Максимум Райд через торрент | qTorrent

% Раздел Тема Автор DL S | L
T Фильмы (WEB-DL 720p, 1080p) [ 2.78 GB ] Максимум Райд / Maximum Ride [2016 WEB-DL 1080p] MVO smaster Скачать
1 | 0

28-11-2019 20:33  

Отключить всю рекламу на сайте

03-09-2016 19:22 Максимум Райд Скачать торрент  

Никто не смотрел??pb.wtf



03-09-2016 19:47 Максимум Райд Скачать торрент  

и не посмотрит)pb.wtf



03-09-2016 20:56 Максимум Райд Скачать торрент  

Если я не ошибаюсь была такая манхва.pb.wtf



04-09-2016 02:29 Максимум Райд Скачать торрент  

Nimvey писал(а):

Если я не ошибаюсь была такая манхва.

Да "Сумерки" называется.pb.wtf



04-09-2016 10:54 Максимум Райд Скачать торрент  

Судя по описанию, я сперва подумал, что Канада.... Но США- не, я чет не особо хочу смотреть...Для США больше напоминает- ассилум филмс...pb.wtf



    Дорогой пользователь! Огромная просьба, поблагодарите релизера, оцените раздачу и оставьте свои комментарий, если Вы скачали Максимум Райд через торрент бесплатно! Внесите свою лепту в развитие PiratBit!
    Комментировать посты могут только пользователи прошедшие не сложную регистрацию
    Показать сообщения:    

    Максимум Райд через торрент
    Скачать бесплатно Максимум Райд
    Максимум Райд скачать торрент
    Максимум Райд смотреть онлайн
    Cкачать фильм Максимум Райд бесплатно
    Максимум Райд скачать торрент в хорошем качестве
    Максимум Райд смотреть онлайн бесплатно в хорошем качестве


    Вы не можете начинать темы
    Вы не можете отвечать на сообщения
    Вы не можете редактировать свои сообщения
    Вы не можете удалять свои сообщения
    Вы не можете голосовать в опросах
    Вы не можете прикреплять файлы к сообщениям
    Вы можете скачивать файлы