новый адрес
Мега распродажа FORZA HORIZON 4 ULTIMATE+ВСЕ DLC+ОНЛАЙН всего за 499р. 349 руб. (супер цена). Внимание количество ограничено!!!

iTunes

1+1

iTunes

мы

iTunes

1

iTunes

Чернобыль

iTunes

Ральф против интернета

Лицензия

ПШазам

Лицензия

Оно 2

Лицензия

30
pack

ВАЖНО

!!Акция!!

Alien_RageХит недели

RePack

Resident Evil 21

ИГРА 18+

pack

RePack

Metro:Exodus

!!Акция!!

Alien_Rage

RePack

fifa19

RePack

Assassins Creed: Odyssey

RePack

NEED FOR SPEED™ PAYBACK

3 сезон

9 сезон

Бесстыжие 9 сезон

Все сериалы

все сериалы на PB.wtf

RePack

FAR CRY 5
Ребята, катастрофически не хватает 1900р. для оплаты серверов за Октябрь (всвязи с блокировками трафик упал в 3 раза), 1-2р., выручайте.
  

Карнавальная ночь (Эльдар Рязанов) [1956, СССР, мюзикл, мелодрама, комедия, BDRip 1080p от AVP Studio] pb.wtf

Карнавальная ночь через торрент pb.wtf

Раздают: 1 [ 0 KB/s ]
Размер: 4.37 GB | Добавлен: 3 года 2 мес. назад | Торрент скачан:99 раз
Скачать  

03-09-2016 20:28 Карнавальная ночь Скачать торрент  

Карнавальная ночь
Год выпуска: 1956
Страна: СССР
Студии: Мосфильм

Жанр: мюзикл, мелодрама, комедия
Продолжительность: 01:15:31
Субтитры: русский

Режиссер: Эльдар Рязанов

В ролях:
Игорь Ильинский, Людмила Гурченко, Юрий Белов, Тамара Носова, Георгий Куликов, Сергей Филиппов, Ольга Власова, Андрей Тутышкин, Геннадий Юдин, Владимир Зельдин, Борис Петкер...
Полный список актёров

Описание:
Едва появившись, этот фильм был тут же "разобран" на цитаты... И сегодня, по прошествии пяти десятилетий, он остаётся одной из самых знаменитых и любимых зрителями новогодних кинокомедий.
"Карнавальная ночь" открыла миру талант юной Людмилы Гурченко и начинающего режиссёра Эльдара Рязанова, которому суждено было стать "классиком" комедийного жанра.
Команда молодых работников клуба готовится к встрече Нового года. Они задумывают провести интересный и веселый праздник, но, на беду ребят, их берется контролировать директор клуба Огурцов — бюрократ, буквоед и чинуша. Собрав всех в своем кабинете, он подробно рассказывает о «своем видении» того, как правильно и полезно провести новогоднюю ночь. Организаторы понимают, что Огурцов собирается вместо праздника преподнести гостям клуба некий коктейль из смотра художественной самодеятельности и партсобрания. И тогда молодежь решает хитростью обойти недалекого начальника, чтобы организовать настоящий новогодний бал.

Исходник: BDRemux
Тип релиза:BDRip 1080p
Контейнер: MKV

Видео: 1480x1080 (1,370:1), 23,976 fps, H264 ~ 7833 kbps avg, 0.204 bit/pixel
Аудио: 48 kHz, Dolby Digital AC3, 5.1 ch, 448.00 kbps
Оригинальная навигация по главам: есть

Раздача от:
Общее
Полное имя : Karnavalnaya.noch.1956.BDRip1080p_[New-team]_by_AVP_Studio.mkv
Формат : Matroska
Версия формата : Version 4 / Version 2
Размер файла : 4,37 Гбайт
Продолжительность : 1 ч. 15 м.
Общий поток : 8285 Кбит/сек
Название фильма : Карнавальная ночь от AVP Studio BDRip 1080p
Дата кодирования : UTC 2016-09-03 19:53:39
Программа кодирования : mkvmerge v9.3.1 ('Mask Machine') 64bit
Библиотека кодирования : libebml v1.3.4 + libmatroska v1.4.5
Обложка : Yes
Attachments : cover.jpg

Видео
Идентификатор : 1
Формат : AVC
Формат/Информация : Advanced Video Codec
Профиль формата : High@L4.1
Параметр CABAC формата : Да
Параметр ReFrames формата : 6 кадров
Идентификатор кодека : V_MPEG4/ISO/AVC
Продолжительность : 1 ч. 15 м.
Битрейт : 7833 Кбит/сек
Ширина : 1480 пикселей
Высота : 1080 пикселей
Соотношение сторон : 1,370
Режим частоты кадров : Постоянный
Частота кадров : 23,976 (24000/1001) кадра/сек
Цветовое пространство : YUV
Субдискретизация насыщенности : 4:2:0
Битовая глубина : 8 бит
Тип развёртки : Прогрессивная
Бит/(Пиксели*Кадры) : 0.204
Размер потока : 4,13 Гбайт (95%)
Заголовок : Источник BDRemux
Библиотека кодирования : x264 core 148 r2597 e86f3a1
Настройки программы : cabac=1 / ref=6 / deblock=1:-3:-3 / analyse=0x3:0x113 / me=umh / subme=10 / psy=1 / psy_rd=1.00:0.00 / mixed_ref=1 / me_range=32 / chroma_me=1 / trellis=2 / 8x8dct=1 / cqm=0 / deadzone=21,11 / fast_pskip=1 / chroma_qp_offset=-2 / threads=6 / lookahead_threads=1 / sliced_threads=0 / nr=0 / decimate=0 / interlaced=0 / bluray_compat=0 / constrained_intra=0 / bframes=8 / b_pyramid=2 / b_adapt=2 / b_bias=0 / direct=3 / weightb=1 / open_gop=0 / weightp=2 / keyint=250 / keyint_min=25 / scenecut=40 / intra_refresh=0 / rc_lookahead=40 / rc=2pass / mbtree=1 / bitrate=7833 / ratetol=1.0 / qcomp=0.60 / qpmin=0 / qpmax=69 / qpstep=4 / cplxblur=20.0 / qblur=0.5 / ip_ratio=1.40 / aq=1:1.00
Язык : Russian
Default : Да
Forced : Нет

Аудио
Идентификатор : 2
Формат : AC-3
Формат/Информация : Audio Coding 3
Расширение режима : CM (complete main)
Параметр Endianness формата : Big
Идентификатор кодека : A_AC3
Продолжительность : 1 ч. 15 м.
Вид битрейта : Постоянный
Битрейт : 448 Кбит/сек
Каналы : 6 каналов
Расположение каналов : Front: L C R, Side: L R, LFE
Частота : 48,0 КГц
Частота кадров : 31,250 кадров/сек (1536 spf)
Метод сжатия : С потерями
Размер потока : 242 Мбайт (5%)
Заголовок : Источник BDRemux
Язык : Russian
Default : Да
Forced : Нет

Меню
00:00:00.000 : :Chapter 01
00:06:20.380 : :Chapter 02
00:15:02.109 : :Chapter 03
00:22:14.624 : :Chapter 04
00:29:50.371 : :Chapter 05
00:33:37.682 : :Chapter 06
00:40:10.408 : :Chapter 07
00:47:34.852 : :Chapter 08
00:54:18.171 : :Chapter 09
01:00:56.611 : :Chapter 10
01:07:08.274 : :Chapter 11
01:11:04.760 : :Chapter 12
pb.wtf



Скачать Карнавальная ночь через торрент http://s017.radikal.ru/i425/1609/d2/c34268a614bd.png Скачать фильм Карнавальная ночь через торрент бесплантно в хорошем качестве Описание: Едва появившись, этот фильм был тут же "разобран" на цитаты... И сегодня, по прошествии пяти десятилетий, он остаётся одной из ... 10 10 7
Info! Золотая раздача, скачанное не засчитывается.
Торрент: Зарегистрирован [2016-09-03 20:28] · скачан: 99 раз
Статус: √ проверено
Размер: 4.37 GB
Как cкачать? Как скачать Карнавальная ночь через торрент | qTorrent

% Раздел Тема Автор DL S | L
Кино СССР [ 1.37 GB ] Карнавальная ночь [1956 СССР мюзикл BDRip-AVC] - ExKinoRay Enigma2010 Скачать
1 | 0
Наши фильмы (Blu-ray, BD-Remux, HDDVD) [ 12.77 GB ] Карнавальная ночь [1956 Мюзикл Мело BD Remux 1080p Русский] DJKOCMOC Скачать
1 | 0
Кино СССР [ 1.09 GB ] Карнавальная ночь [1956 СССР мюзикл BDRip-AVC от AVP Studio] AVP Studio Скачать
1 | 0


>> Регистрируемся здесь <<






Отзывы и комментарии о схеме читаем и пишем здесь: ---> Отзывы и комментарии о схеме

Новые благодарочки в телеграм довольных пользователей:
скриншот   скриншот   скриншот   скриншот   скриншот
    Дорогой пользователь! Огромная просьба, поблагодарите релизера, оцените раздачу и оставьте свои комментарий, если Вы скачали Карнавальная ночь через торрент бесплатно! Внесите свою лепту в развитие PiratBit!
    Комментировать посты могут только пользователи прошедшие не сложную регистрацию
    Показать сообщения:    

    Карнавальная ночь через торрент
    Скачать бесплатно Карнавальная ночь
    Карнавальная ночь скачать торрент
    Карнавальная ночь смотреть онлайн
    Cкачать фильм Карнавальная ночь бесплатно
    Карнавальная ночь скачать торрент в хорошем качестве
    Карнавальная ночь смотреть онлайн бесплатно в хорошем качестве


    Вы не можете начинать темы
    Вы не можете отвечать на сообщения
    Вы не можете редактировать свои сообщения
    Вы не можете удалять свои сообщения
    Вы не можете голосовать в опросах
    Вы не можете прикреплять файлы к сообщениям
    Вы можете скачивать файлы