Ссылка на приватное зеркало нашего сайта всего за 1$. Внимание количество ограничено!!!

2 сезон

iTunes

1 сезон

1

2 сезон

2 сезон

iTunes

1 сезон

RePack

30

Ultimate

ВАЖНО

ИГРА 18+

pack

RePack

MK11
pack

Забери бонус

RePack

jed

!!Акция!!

Alien_Rage

RePack

fifa19

RePack

Assassins Creed: Odyssey

RePack

NEED FOR SPEED™ PAYBACK

4 сезон

9 сезон

Бесстыжие 9 сезон

Все сериалы

все сериалы на PB.wtf

RePack

FAR CRY 5
  

Коллекция / The Collection / Сезон: 1 / Серии 1-8 из 8 (Дэн Зефф / Dan Zeff, Дирбла Уолш / Dearbhla Walsh) [2016 , Великобритания, драма, мелодрама, история, WEBRip-AVC] MVO [BaibaKo] pb.wtf

Коллекция через торрент pb.wtf

Размер: 8.83 GB | Добавлен: 3 года 10 мес. назад | Торрент скачан:20 раз
Скачать  

04-09-2016 04:32 Коллекция Скачать торрент  

Коллекция / The Collection
«Nothing bold or magnificent is built from fear»


  • Год выпуска: 2016
  • Страна: Великобритания
  • Жанр: драма, мелодрама, история
  • Продолжительность: 00:57:55 (Серия)
  • Перевод: Профессиональный многоголосый [BaibaKo]
  • Режиссер: Дэн Зефф / Dan Zeff, Дирбла Уолш / Dearbhla Walsh
  • В ролях:

    Ричард Койл (Paul Sabine), Том Райли (Claude Sabine), Мэми Гаммер (Helen Sabine), Фрэнсис де ла Тур (Yvette), Дженна Тиам (Nina), Макс Дикон (Billy), Аликс Пуасон (Charlotte), Александр Брассе (Victor), Ирен Жакоб (Marianne), Поппи Корби-Туч (Dominique), Bethan Mary James (Juliette), Сара Пэриш (Marjorie Stutter)


  • Действие драматического сериала «The Collection» начинается в 1947 году. Это история прославленного Парижского дома мод, пережившего мрачные и унизительные для страны дни фашистской оккупации. И теперь Франция, будто в отместку, сама готова завоевать мир – с помощью такого оружия, как красота. Дизайн и бизнес в эти годы в Европе становятся очень важными понятиями. В центре истории судьба Поля и Клода. Они братья, но столь разные. И всё же вместе начинают создавать семейную империю. Поль – гениальный кутюрье, но у него есть тайна, способная похоронить начинания героев. «The Collection» - сериал не о блестящей одежде, но о тех, кто её создаёт и носит.
  • Рейтинг:



  • Качество: WEBRip-AVC
  • Формат: :MPEG-4
  • Видео кодек: AVC
  • Аудио кодек: AC3
  • Видео: 2000 Кбит/сек, 1024*576 (16:9), в 59,940 (60000/1001) кадров/сек, AVC
  • Аудио №1: русский 384 Кбит/сек, 48,0 КГц, 16 бит, 2 канала, AC-3 |[BaibaKo]|
  • Аудио №2: английский 384 Кбит/сек, 48,0 КГц, 16 бит, 2 канала, AC-3
  • Релиз от: GEKADOL

    Внимание! Раздача ведётся путём добавления новых серий; при каждом добавлении создаётся новый торрент. Чтобы начать докачку новой серии, пользователям необходимо сделать следующее:
    (1) остановить скачивание,
    (2) удалить старый торрент у себя из клиента (старые серии удалять не надо),
    (3) скачать новый торрент и запустить его у себя в клиенте вместо старого, при этом указать клиенту путь в старую папку куда и должно происходить скачивание новых серий.
    Ваш клиент при этом должен произвести хеширование (проверку) старой папки (если не производит сам - помогите ему сделать это), и будет докачивать только те серии которых у вас ещё нет. Старые серии при этом не удаляются, а продолжают раздаваться!
    Eсли вы уже удалили старые серии, то предотвратить повторную закачку старых серий можно, отжав галочку в соответсвующих местах при запуске нового торрента. По возможности, желательно не удалять старые серии как можно дольше чтобы релизёр не столько продолжал раздавать старые серии, а смог сконцентрироваться на новых.

    Общее
    Полное имя : H:\Коллекция (The Collection)\The.Collection.s01e04.WEBRip-AVC.Rus.Eng.BaibaKo.tv.mp4
    Формат : MPEG-4
    Профиль формата : Base Media
    Идентификатор кодека : isom (isom/iso2/avc1/mp41)
    Размер файла : 1,18 Гбайт
    Продолжительность : 1 ч. 1 м.
    Общий поток : 2747 Кбит/сек
    Программа кодирования : XviD4PSP 7.0.299 DAILY
    HDVideo : Yes
    encoding_info : MATROSKA / WEBM > MP4 Произвольный / H264 > X264 CBR 2000kbps HQ / AC3 > AC3 CBR 384kbps / AC3 > AC3 CBR 384kbps

    Видео
    Идентификатор : 1
    Формат : AVC
    Формат/Информация : Advanced Video Codec
    Профиль формата : High@L3.2
    Параметр CABAC формата : Да
    Параметр ReFrames формата : 4 кадра
    Идентификатор кодека : avc1
    Идентификатор кодека/Информация : Advanced Video Coding
    Продолжительность : 1 ч. 1 м.
    Битрейт : 2000 Кбит/сек
    Ширина : 1024 пикселя
    Высота : 576 пикселей
    Соотношение сторон : 16:9
    Режим частоты кадров : Постоянный
    Частота кадров : 59,940 (60000/1001) кадров/сек
    Цветовое пространство : YUV
    Субдискретизация насыщенности : 4:2:0
    Битовая глубина : 8 бит
    Тип развёртки : Прогрессивная
    Бит/(Пиксели*Кадры) : 0.057
    Размер потока : 863 Мбайт (72%)
    Библиотека кодирования : x264 core 148 r2705M 3f5ed56
    Настройки программы : cabac=1 / ref=3 / deblock=1:-1:-1 / analyse=0x3:0x133 / me=hex / subme=7 / psy=1 / psy_rd=1.00:0.20 / mixed_ref=1 / me_range=16 / chroma_me=1 / trellis=1 / 8x8dct=1 / cqm=0 / deadzone=21,11 / fast_pskip=1 / chroma_qp_offset=-3 / threads=5 / lookahead_threads=1 / sliced_threads=0 / nr=0 / decimate=1 / interlaced=0 / bluray_compat=0 / constrained_intra=0 / bframes=3 / b_pyramid=2 / b_adapt=2 / b_bias=0 / direct=3 / weightb=1 / open_gop=0 / weightp=2 / keyint=250 / keyint_min=25 / scenecut=40 / intra_refresh=0 / rc_lookahead=40 / rc=cbr / mbtree=1 / bitrate=2000 / ratetol=1.0 / qcomp=0.60 / qpmin=0 / qpmax=69 / qpstep=4 / vbv_maxrate=2000 / vbv_bufsize=2000 / nal_hrd=none / filler=0 / ip_ratio=1.40 / aq=1:1.00

    Аудио #1
    Идентификатор : 2
    Формат : AC-3
    Формат/Информация : Audio Coding 3
    Расширение режима : CM (complete main)
    Параметр Endianness формата : Big
    Идентификатор кодека : ac-3
    Продолжительность : 1 ч. 1 м.
    Вид битрейта : Постоянный
    Битрейт : 384 Кбит/сек
    Каналы : 2 канала
    Расположение каналов : Front: L R
    Частота : 48,0 КГц
    Частота кадров : 31,250 кадров/сек (1536 spf)
    Битовая глубина : 16 бит
    Метод сжатия : С потерями
    Размер потока : 168 Мбайт (14%)
    Язык : Russian
    Default : Да
    Alternate group : 1

    Аудио #2
    Идентификатор : 3
    Формат : AC-3
    Формат/Информация : Audio Coding 3
    Расширение режима : CM (complete main)
    Параметр Endianness формата : Big
    Идентификатор кодека : ac-3
    Продолжительность : 1 ч. 1 м.
    Вид битрейта : Постоянный
    Битрейт : 384 Кбит/сек
    Каналы : 2 канала
    Расположение каналов : Front: L R
    Частота : 48,0 КГц
    Частота кадров : 31,250 кадров/сек (1536 spf)
    Битовая глубина : 16 бит
    Метод сжатия : С потерями
    Размер потока : 168 Мбайт (14%)
    Язык : English
    Default : Нет
    Alternate group : 1



    Скриншоты:
    скриншот   скриншот   скриншот   скриншот   скриншот   скриншот   скриншот  
    скриншот  

    Раздача ведётся путём добавления новых серий. Добавлена 8 серия (15.01.2017).Просьба перекачать торрент файл.

    pb.wtf



  • Скачать Коллекция через торрент http://i4.imageban.ru/out/2016/09/04/11d0379916c9b77626774a0d8443dc29.jpg Скачать фильм Коллекция через торрент бесплантно в хорошем качестве qw.png Действие драматического сериала «The Collection» начинается в 1947 году. Это история прославленного Парижского дома мод, ... 8.2 10 5
    Info! Золотая раздача, скачанное не засчитывается.
    Торрент: Зарегистрирован [2017-01-15 01:42] · скачан: 20 раз
    Статус: √ проверено
    Размер: 8.83 GB
    Как cкачать? Как скачать Коллекция через торрент | qTorrent



    Последний раз редактировалось: GEKADOL (2017-01-15 01:42), всего редактировалось 2 раз(а)

    28-11-2019 20:33  

    Отключить всю рекламу на сайте

    07-10-2016 06:57 Коллекция Скачать торрент  

    GEKADOL

    Просьба ко всем заливающим.
    Исключить при оформлении данный бб код.
    Код:
    [code][/code]

    http://prntscr.com/c6wz9g
    Чаще его используют в разделе кино для отчета МИ
    http://prntscr.com/c6wwr5
    Его наличие или отсутствие никак не влияет на информацию, а вот на сам сайт имеет. Когда его много, не есть хорошо и страницы порой дольше грузит.
    Это касается уже новых релизов.В старых по возможности уберем автоматом.pb.wtf



      Дорогой пользователь! Огромная просьба, поблагодарите релизера, оцените раздачу и оставьте свои комментарий, если Вы скачали Коллекция через торрент бесплатно! Внесите свою лепту в развитие PiratBit!
      Комментировать посты могут только пользователи прошедшие не сложную регистрацию
      Показать сообщения:    

      Коллекция через торрент
      Скачать бесплатно Коллекция
      Коллекция скачать торрент
      Коллекция смотреть онлайн
      Cкачать фильм Коллекция бесплатно
      Коллекция скачать торрент в хорошем качестве
      Коллекция смотреть онлайн бесплатно в хорошем качестве


      Вы не можете начинать темы
      Вы не можете отвечать на сообщения
      Вы не можете редактировать свои сообщения
      Вы не можете удалять свои сообщения
      Вы не можете голосовать в опросах
      Вы не можете прикреплять файлы к сообщениям
      Вы можете скачивать файлы