Ссылка на приватное зеркало нашего сайта всего за 1$. Внимание количество ограничено!!!

2 сезон

iTunes

1 сезон

1

iTunes

iTunes

iTunes

1 сезон

RePack

30

ИГРА 18+

pack

ВАЖНО

!!Акция!!

Alien_RageХит недели

RePack

MK11
pack

Забери бонус

RePack

jed

!!Акция!!

Alien_Rage

RePack

fifa19

RePack

Assassins Creed: Odyssey

RePack

NEED FOR SPEED™ PAYBACK

4 сезон

9 сезон

Бесстыжие 9 сезон

Все сериалы

все сериалы на PB.wtf

RePack

FAR CRY 5
  

Бегущий по лезвию / Blade Runner (Ридли Скотт ) [1982, фантастика, триллер, драма, BDRip 720p от potroks] [Финальная версия] DUB + MVO + DVO + AVO pb.wtf

Бегущий по лезвию через торрент pb.wtf

Размер: 9.63 GB | Добавлен: 4 года 1 мес. назад | Торрент скачан:466 раз
Скачать  

04-09-2016 17:05 Бегущий по лезвию Скачать торрент  

Бегущий по лезвию / Blade Runner

Год выпуска: 1982
Страна: США, Гонконг, Великобритания
Жанр: фантастика, триллер, драма, мелодрама
Продолжительность: 01:57:36
Перевод: Дубляж [Blu-ray CEE], профессиональный (многоголосый), профессиональный (двухголосый), авторский (одноголосый)
Субтитры: русские (Blu-Ray), русские (Tycoon (SDH)), украинские (Blu-ray), английские (Full + SDH)
Навигация по главам: есть
Режиссер: Ридли Скотт
В ролях:

Харрисон Форд (Rick Deckard), Рутгер Хауэр (Roy Batty), Шон Янг (Rachael), Эдвард Джеймс Олмос (Gaff), М. Эммет Уолш (Bryant), Дэрил Ханна (Pris), Уильям Сэндерсон (J.F. Sebastian), Брайон Джеймс (Leon Kowalski), Джо Тёркел (Dr. Eldon Tyrell), Джоанна Кэссиди (Zhora), Джеймс Хонг (Hannibal Chew), Морган Полл (Holden)
Описание: Отставной детектив Рик Декард вновь восстановлен в полиции Лос-Анджелеса для поиска возглавляемой Роем Батти группы киборгов, совершившей побег из космической колонии на Землю.

Качество: BDRip 720p
Формат: MKV
Видео: AVC, 1280x534 (2.40:1), 5069 kbps, 23,976 fps, 0,309 bpp
Аудио №1: AC3 / 5.1 / 48 kHz / 640 kbps / 16 bit | DUB - Blu-ray CEE
Аудио №2: AC3 / 5.1 / 48 kHz / 640 kbps / 16 bit | MVO - Киномания
Аудио №3: AC3 / 5.1 / 48 kHz / 640 kbps / 16 bit | DVO - Tycoon
Аудио №4: AC3 / 5.1 / 48 kHz / 640 kbps / 16 bit | AVO - А.Гаврилов
Аудио №5: AC3 / 5.1 / 48 kHz / 640 kbps / 16 bit | AVO - Ю.Живов
Аудио №6: AC3 / 5.1 / 48 kHz / 640 kbps / 16 bit | AVO - А.Матвеев
Аудио №7: AC3 / 5.1 / 48 kHz / 640 kbps / 16 bit | AVO - В.Попов
Аудио №8: AC3 / 5.1 / 48 kHz / 448 kbps / 16 bit | AVO - П.Карцев
Аудио №9: AC3 / 5.1 / 48 kHz / 448 kbps / 16 bit | AVO - Д. Есарев
Аудио №10: AC3 / 5.1 / 48 kHz / 448 kbps / 16 bit | AVO - В.Завгородний
Аудио №11: AC3 / 2.0 / 48 kHz / 192 kbps / 16 bit | AVO - К.Поздняков
Аудио №12: AC3 / 5.1 / 48 kHz / 640 kbps / 16 bit | ENG

Код:

General
Unique ID                                : 180106544629000324307341185434973937636 (0x877F423D50F1B46EB1775B09F5949FE4)
Complete name                            : N:\Фантастика\Beguschiy.Po.Lezviyu.1982.FC.11xRus.Eng.BDRip.720p.-HELLYWOOD.mkv
Format                                   : Matroska
Format version                           : Version 4 / Version 2
File size                                : 9.63 GiB
Duration                                 : 1 h 57 min
Overall bit rate                         : 11.7 Mb/s
Movie name                               : Blade Runner [The Final Cut] (1982)
Encoded date                             : UTC 2016-07-15 13:41:32
Writing application                      : mkvmerge v5.9.0 ('On The Loose') built on Dec 15 2012 16:39:58
Writing library                          : libebml v1.3.0 + libmatroska v1.4.0

Video
ID                                       : 1
Format                                   : AVC
Format/Info                              : Advanced Video Codec
Format profile                           : High@L4.1
Format settings, CABAC                   : Yes
Format settings, ReFrames                : 9 frames
Codec ID                                 : V_MPEG4/ISO/AVC
Duration                                 : 1 h 57 min
Bit rate                                 : 5 069 kb/s
Width                                    : 1 280 pixels
Height                                   : 534 pixels
Display aspect ratio                     : 2.40:1
Frame rate mode                          : Constant
Frame rate                               : 23.976 (24000/1001) FPS
Color space                              : YUV
Chroma subsampling                       : 4:2:0
Bit depth                                : 8 bits
Scan type                                : Progressive
Bits/(Pixel*Frame)                       : 0.309
Stream size                              : 3.97 GiB (41%)
Title                                    : potroks
Writing library                          : x264 core 148 r2705M 3f5ed56
Encoding settings                        : cabac=1 / ref=9 / deblock=1:-3:-3 / analyse=0x3:0x133 / me=umh / subme=11 / psy=1 / psy_rd=0.96:0.00 / mixed_ref=1 / me_range=48 / chroma_me=1 / trellis=2 / 8x8dct=1 / cqm=0 / deadzone=21,11 / fast_pskip=0 / chroma_qp_offset=-2 / threads=9 / lookahead_threads=2 / sliced_threads=0 / nr=0 / decimate=0 / interlaced=0 / bluray_compat=0 / constrained_intra=0 / bframes=10 / b_pyramid=2 / b_adapt=2 / b_bias=0 / direct=3 / weightb=1 / open_gop=0 / weightp=2 / keyint=240 / keyint_min=23 / scenecut=40 / intra_refresh=0 / rc_lookahead=100 / rc=2pass / mbtree=0 / bitrate=5069 / ratetol=1.0 / qcomp=0.70 / qpmin=1 / qpmax=69 / qpstep=4 / cplxblur=20.0 / qblur=0.5 / vbv_maxrate=50000 / vbv_bufsize=60000 / nal_hrd=none / filler=0 / ip_ratio=1.40 / pb_ratio=1.30 / aq=1:0.85
Language                                 : English
Default                                  : Yes
Forced                                   : No

Audio #1
ID                                       : 2
Format                                   : AC-3
Format/Info                              : Audio Coding 3
Mode extension                           : CM (complete main)
Format settings, Endianness              : Big
Codec ID                                 : A_AC3
Duration                                 : 1 h 57 min
Bit rate mode                            : Constant
Bit rate                                 : 640 kb/s
Channel(s)                               : 6 channels
Channel positions                        : Front: L C R, Side: L R, LFE
Sampling rate                            : 48.0 kHz
Frame rate                               : 31.250 FPS (1536 spf)
Compression mode                         : Lossy
Stream size                              : 538 MiB (5%)
Title                                    : Dub | DD 5.1 @ 640 kbps - Blu-ray CEE
Language                                 : Russian
Default                                  : Yes
Forced                                   : No

Audio #2
ID                                       : 3
Format                                   : AC-3
Format/Info                              : Audio Coding 3
Mode extension                           : CM (complete main)
Format settings, Endianness              : Big
Codec ID                                 : A_AC3
Duration                                 : 1 h 57 min
Bit rate mode                            : Constant
Bit rate                                 : 640 kb/s
Channel(s)                               : 6 channels
Channel positions                        : Front: L C R, Side: L R, LFE
Sampling rate                            : 48.0 kHz
Frame rate                               : 31.250 FPS (1536 spf)
Compression mode                         : Lossy
Stream size                              : 538 MiB (5%)
Title                                    : MVO | DD 5.1 @ 640 kbps - Cinemania
Language                                 : Russian
Default                                  : No
Forced                                   : No

Audio #3
ID                                       : 4
Format                                   : AC-3
Format/Info                              : Audio Coding 3
Mode extension                           : CM (complete main)
Format settings, Endianness              : Big
Codec ID                                 : A_AC3
Duration                                 : 1 h 57 min
Bit rate mode                            : Constant
Bit rate                                 : 640 kb/s
Channel(s)                               : 6 channels
Channel positions                        : Front: L C R, Side: L R, LFE
Sampling rate                            : 48.0 kHz
Frame rate                               : 31.250 FPS (1536 spf)
Compression mode                         : Lossy
Stream size                              : 538 MiB (5%)
Title                                    : DVO | DD 5.1 @ 640 kbps - Tycoon
Language                                 : Russian
Default                                  : No
Forced                                   : No

Audio #4
ID                                       : 5
Format                                   : AC-3
Format/Info                              : Audio Coding 3
Mode extension                           : CM (complete main)
Format settings, Endianness              : Big
Codec ID                                 : A_AC3
Duration                                 : 1 h 57 min
Bit rate mode                            : Constant
Bit rate                                 : 640 kb/s
Channel(s)                               : 6 channels
Channel positions                        : Front: L C R, Side: L R, LFE
Sampling rate                            : 48.0 kHz
Frame rate                               : 31.250 FPS (1536 spf)
Compression mode                         : Lossy
Stream size                              : 538 MiB (5%)
Title                                    : AVO | DD 5.1 @ 640 kbps - A.Gavrilov
Language                                 : Russian
Default                                  : No
Forced                                   : No

Audio #5
ID                                       : 6
Format                                   : AC-3
Format/Info                              : Audio Coding 3
Mode extension                           : CM (complete main)
Format settings, Endianness              : Big
Codec ID                                 : A_AC3
Duration                                 : 1 h 57 min
Bit rate mode                            : Constant
Bit rate                                 : 640 kb/s
Channel(s)                               : 6 channels
Channel positions                        : Front: L C R, Side: L R, LFE
Sampling rate                            : 48.0 kHz
Frame rate                               : 31.250 FPS (1536 spf)
Compression mode                         : Lossy
Stream size                              : 538 MiB (5%)
Title                                    : AVO | DD 5.1 @ 640 kbps - Yu.Zhivov
Language                                 : Russian
Default                                  : No
Forced                                   : No

Audio #6
ID                                       : 7
Format                                   : AC-3
Format/Info                              : Audio Coding 3
Mode extension                           : CM (complete main)
Format settings, Endianness              : Big
Codec ID                                 : A_AC3
Duration                                 : 1 h 57 min
Bit rate mode                            : Constant
Bit rate                                 : 640 kb/s
Channel(s)                               : 6 channels
Channel positions                        : Front: L C R, Side: L R, LFE
Sampling rate                            : 48.0 kHz
Frame rate                               : 31.250 FPS (1536 spf)
Compression mode                         : Lossy
Stream size                              : 538 MiB (5%)
Title                                    : AVO | DD 5.1 @ 640 kbps - A.Matveev
Language                                 : Russian
Default                                  : No
Forced                                   : No

Audio #7
ID                                       : 8
Format                                   : AC-3
Format/Info                              : Audio Coding 3
Mode extension                           : CM (complete main)
Format settings, Endianness              : Big
Codec ID                                 : A_AC3
Duration                                 : 1 h 57 min
Bit rate mode                            : Constant
Bit rate                                 : 640 kb/s
Channel(s)                               : 6 channels
Channel positions                        : Front: L C R, Side: L R, LFE
Sampling rate                            : 48.0 kHz
Frame rate                               : 31.250 FPS (1536 spf)
Compression mode                         : Lossy
Stream size                              : 538 MiB (5%)
Title                                    : AVO | DD 5.1 @ 640 kbps - V.Popov
Language                                 : Russian
Default                                  : No
Forced                                   : No

Audio #8
ID                                       : 9
Format                                   : AC-3
Format/Info                              : Audio Coding 3
Mode extension                           : CM (complete main)
Format settings, Endianness              : Big
Codec ID                                 : A_AC3
Duration                                 : 1 h 57 min
Bit rate mode                            : Constant
Bit rate                                 : 448 kb/s
Channel(s)                               : 6 channels
Channel positions                        : Front: L C R, Side: L R, LFE
Sampling rate                            : 48.0 kHz
Frame rate                               : 31.250 FPS (1536 spf)
Compression mode                         : Lossy
Stream size                              : 377 MiB (4%)
Title                                    : AVO | DD 5.1 @ 448 kbps - P.Kartsev
Language                                 : Russian
Default                                  : No
Forced                                   : No

Audio #9
ID                                       : 10
Format                                   : AC-3
Format/Info                              : Audio Coding 3
Mode extension                           : CM (complete main)
Format settings, Endianness              : Big
Codec ID                                 : A_AC3
Duration                                 : 1 h 57 min
Bit rate mode                            : Constant
Bit rate                                 : 448 kb/s
Channel(s)                               : 6 channels
Channel positions                        : Front: L C R, Side: L R, LFE
Sampling rate                            : 48.0 kHz
Frame rate                               : 31.250 FPS (1536 spf)
Compression mode                         : Lossy
Stream size                              : 377 MiB (4%)
Title                                    : AVO | DD 5.1 @ 448 kbps - D.Yesarev
Language                                 : Russian
Default                                  : No
Forced                                   : No

Audio #10
ID                                       : 11
Format                                   : AC-3
Format/Info                              : Audio Coding 3
Mode extension                           : CM (complete main)
Format settings, Endianness              : Big
Codec ID                                 : A_AC3
Duration                                 : 1 h 57 min
Bit rate mode                            : Constant
Bit rate                                 : 448 kb/s
Channel(s)                               : 6 channels
Channel positions                        : Front: L C R, Side: L R, LFE
Sampling rate                            : 48.0 kHz
Frame rate                               : 31.250 FPS (1536 spf)
Compression mode                         : Lossy
Stream size                              : 377 MiB (4%)
Title                                    : AVO | DD 5.1 @ 448 kbps - V.Zavgorodny
Language                                 : Russian
Default                                  : No
Forced                                   : No

Audio #11
ID                                       : 12
Format                                   : AC-3
Format/Info                              : Audio Coding 3
Mode extension                           : CM (complete main)
Format settings, Endianness              : Big
Codec ID                                 : A_AC3
Duration                                 : 1 h 57 min
Bit rate mode                            : Constant
Bit rate                                 : 192 kb/s
Channel(s)                               : 2 channels
Channel positions                        : Front: L R
Sampling rate                            : 48.0 kHz
Frame rate                               : 31.250 FPS (1536 spf)
Compression mode                         : Lossy
Stream size                              : 162 MiB (2%)
Title                                    : AVO | DD 2.0 @ 192 kbps - K.Pozdnyakov
Language                                 : Russian
Default                                  : No
Forced                                   : No

Audio #12
ID                                       : 13
Format                                   : AC-3
Format/Info                              : Audio Coding 3
Mode extension                           : CM (complete main)
Format settings, Endianness              : Big
Codec ID                                 : A_AC3
Duration                                 : 1 h 57 min
Bit rate mode                            : Constant
Bit rate                                 : 640 kb/s
Channel(s)                               : 6 channels
Channel positions                        : Front: L C R, Side: L R, LFE
Sampling rate                            : 48.0 kHz
Frame rate                               : 31.250 FPS (1536 spf)
Compression mode                         : Lossy
Stream size                              : 538 MiB (5%)
Title                                    : Original | DD 5.1 @ 640 kbps
Language                                 : English
Default                                  : No
Forced                                   : No

Text #1
ID                                       : 14
Format                                   : UTF-8
Codec ID                                 : S_TEXT/UTF8
Codec ID/Info                            : UTF-8 Plain Text
Title                                    : Blu-ray
Language                                 : Russian
Default                                  : No
Forced                                   : No

Text #2
ID                                       : 15
Format                                   : UTF-8
Codec ID                                 : S_TEXT/UTF8
Codec ID/Info                            : UTF-8 Plain Text
Title                                    : Tycoon [SDH]
Language                                 : Russian
Default                                  : No
Forced                                   : No

Text #3
ID                                       : 16
Format                                   : UTF-8
Codec ID                                 : S_TEXT/UTF8
Codec ID/Info                            : UTF-8 Plain Text
Title                                    : Blu-ray
Language                                 : Ukrainian
Default                                  : No
Forced                                   : No

Text #4
ID                                       : 17
Format                                   : UTF-8
Codec ID                                 : S_TEXT/UTF8
Codec ID/Info                            : UTF-8 Plain Text
Title                                    : Full
Language                                 : English
Default                                  : No
Forced                                   : No

Text #5
ID                                       : 18
Format                                   : UTF-8
Codec ID                                 : S_TEXT/UTF8
Codec ID/Info                            : UTF-8 Plain Text
Title                                    : SDH
Language                                 : English
Default                                  : No
Forced                                   : No

Menu
00:00:00.000                             : :(01)00:00:00:000
00:05:00.000                             : :(02)00:05:00:000
00:10:00.000                             : :(03)00:10:00:000
00:15:00.000                             : :(04)00:15:00:000
00:20:00.000                             : :(05)00:20:00:000
00:25:00.000                             : :(06)00:25:00:000
00:30:00.000                             : :(07)00:30:00:000
00:35:00.000                             : :(08)00:35:00:000
00:40:00.000                             : :(09)00:40:00:000
00:45:00.000                             : :(10)00:45:00:000
00:50:00.000                             : :(11)00:50:00:000
00:55:00.000                             : :(12)00:55:00:000
01:00:00.000                             : :(13)01:00:00:000
01:05:00.000                             : :(14)01:05:00:000
01:10:00.000                             : :(15)01:10:00:000
01:15:00.000                             : :(16)01:15:00:000
01:20:00.000                             : :(17)01:20:00:000
01:25:00.000                             : :(18)01:25:00:000
01:30:00.000                             : :(19)01:30:00:000
01:35:00.000                             : :(20)01:35:00:000
01:40:00.000                             : :(21)01:40:00:000
01:45:00.000                             : :(22)01:45:00:000
01:50:00.000                             : :(23)01:50:00:000
01:55:00.000                             : :(24)01:55:00:000

pb.wtf



Скачать Бегущий по лезвию через торрент http://i78.fastpic.ru/big/2016/0904/0d/9c963aa6e6cafb4432cf457031cd8d0d.png Скачать фильм Бегущий по лезвию через торрент бесплантно в хорошем качестве Описание: Отставной детектив Рик Декард вновь восстановлен в полиции Лос-Анджелеса для поиска возглавляемой Роем Батти группы киборгов, ... 9.3 10 15
Info! Золотая раздача, скачанное не засчитывается.
Торрент: Зарегистрирован [2016-09-04 17:05] · скачан: 466 раз
Статус: √ проверено
Размер: 9.63 GB
Как cкачать? Как скачать Бегущий по лезвию через торрент | qTorrent

% Раздел Тема Автор DL S | L
Ultra HD (UHD: 2K, 4K, 8K) — видео сверхвысокой чёткости [ 66.15 GB ] Бегущий по лезвию / Blade Runner [1982 UHD BDRemux 2160p] DUB + MVO + DVO + 10xAVO [Финальная версия] sheker187 Скачать
2 | 0
Ultra HD (UHD: 2K, 4K, 8K) — видео сверхвысокой чёткости [ 65.65 GB ] Бегущий по Лезвию / Blade Runner [1982 антиутопия UHD BDRemux 2160p] DUB+MVO+DVO+8xAVO [Финальная версия] [] bober100 Скачать
1 | 0
R.G. Resident & PiratVoice - Фильмы, Видео [ 3.97 GB ] Бегущий по лезвию / Blade Runner [1982 BDRip-AVC от R.G. Resident] Dub MVO DVO AVO -Lexx- Скачать
2 | 0
Фильмы [HD 720p, 1080p] (Хороший звук DUB, MVO) [ 8.5 GB ] Бегущий по лезвию / Blade Runner [1982 BDRip 720p] [International Theatrical Cut] [DUB MVO AVO] Kavasar Скачать
1 | 0

28-11-2019 20:33  

Отключить всю рекламу на сайте

04-09-2016 22:51 Бегущий по лезвию Скачать торрент  

potroks, личное огромное спасибо pb.wtf



    Дорогой пользователь! Огромная просьба, поблагодарите релизера, оцените раздачу и оставьте свои комментарий, если Вы скачали Бегущий по лезвию через торрент бесплатно! Внесите свою лепту в развитие PiratBit!
    Комментировать посты могут только пользователи прошедшие не сложную регистрацию
    Показать сообщения:    

    Бегущий по лезвию через торрент
    Скачать бесплатно Бегущий по лезвию
    Бегущий по лезвию скачать торрент
    Бегущий по лезвию смотреть онлайн
    Cкачать фильм Бегущий по лезвию бесплатно
    Бегущий по лезвию скачать торрент в хорошем качестве
    Бегущий по лезвию смотреть онлайн бесплатно в хорошем качестве


    Вы не можете начинать темы
    Вы не можете отвечать на сообщения
    Вы не можете редактировать свои сообщения
    Вы не можете удалять свои сообщения
    Вы не можете голосовать в опросах
    Вы не можете прикреплять файлы к сообщениям
    Вы можете скачивать файлы